<?xml version="1.0" standalone="no"?>
<!DOCTYPE svg PUBLIC "-//W3C//DTD SVG 1.1//EN" "http://www.w3.org/Graphics/SVG/1.1/DTD/svg11.dtd">
<svg xmlns="http://www.w3.org/2000/svg">
<metadata>Copyright (C) 2021 by original authors @ fontello.com</metadata>
<defs>
<font id="fontello" horiz-adv-x="1000" >
<font-face font-family="fontello" font-weight="400" font-stretch="normal" units-per-em="1000" ascent="850" descent="-150" />
<missing-glyph horiz-adv-x="1000" />
<glyph glyph-name="001-plaster" unicode="&#xe800;" d="M793 349l58 58c6 6 6 15 0 21-6 6-15 6-21 0l-58-58-24 25 171 170c5 6 5 15 0 21l-181 181c-6 6-15 6-21 0l-171-170-25 24 196 195c7 6 14 6 21 0l230-230c6-7 6-14 0-21l-93-92c-5-6-5-15 0-21 7-5 14-5 21 0l93 93c17 17 17 45 0 62l-231 230c-20 17-41 17-62 0l-195-195-67 67c-6 5-15 5-21 0-6-6-6-15 0-21l555-555c6-5 6-15 0-20l-230-231c-6-6-15-6-21 0l-683 683c-6 6-6 15 0 21l230 230c6 6 15 6 21 0l83-83c6-6 15-6 21 0 5 6 5 15 0 21l-84 83c-17 17-45 17-62 0l-230-230c-17-17-17-45 0-62l195-196-195-195c-17-17-17-45 0-62l230-231c21-17 42-17 62 0l196 196 195-196c21-17 42-17 62 0l231 231c17 17 17 45 0 62z m-66 387l161-160-161-161-160 161z m-442-854c-7-6-14-6-21 0l-230 231c-6 6-6 13 0 20l195 196 25-25-171-171c-6-5-6-15 0-20l68-68c7-6 14-6 20 0 6 5 6 15 0 20l-57 58 160 160 161-160-161-161-57 58c-6 6-15 6-21 0-6-6-6-15 0-21l68-68c7-5 14-5 21 0l170 171 25-24z m-21 885l-181-181c-6-6-6-15 0-21l634-634c7-5 14-5 21 0l181 182c5 5 5 15 0 20l-634 634c-6 6-15 6-21 0z m463-805l-613 614 160 160 614-613z m-191 241c7-6 13-6 20 0l91 91c6 5 6 15 0 20l-181 182c-6 5-15 5-21 0l-91-91c-5-6-5-15 0-21z m-81 262l161-161-70-70-160 161z m-79-331c6-6 6-16 0-22-6-6-16-6-22 0-6 6-6 16 0 22 6 6 16 6 22 0z m-46 45c7-6 7-16 0-22-6-6-15-6-21 0-6 6-6 16 0 22 6 6 15 6 21 0z m-45 45c6-6 6-15 0-21-6-6-16-6-22 0-6 6-6 15 0 21 6 6 16 6 22 0z m45-135c7-6 7-16 0-22-6-6-15-6-21 0-6 6-6 16 0 22 6 6 15 6 21 0z m-45 45c6-6 6-16 0-22-6-6-16-6-22 0-6 6-6 16 0 22 6 6 16 6 22 0z m-45 45c6-6 6-16 0-22-6-6-16-6-22 0-6 6-6 16 0 22 6 6 16 6 22 0z m45-136c6-6 6-16 0-22-6-6-16-6-22 0-6 6-6 16 0 22 6 6 16 6 22 0z m-45 46c6-6 6-16 0-22-6-6-16-6-22 0-6 6-6 16 0 22 6 6 16 6 22 0z m-45 45c6-6 6-16 0-22-6-6-16-6-22 0-6 6-6 16 0 22 6 6 16 6 22 0z m588 407c6-6 6-15 0-21-6-6-15-6-22 0-6 6-6 15 0 21 7 6 16 6 22 0z m-45 46c6-6 6-16 0-22-6-6-16-6-22 0-6 6-6 16 0 22 6 6 16 6 22 0z m-45 45c6-6 6-16 0-22-6-6-16-6-22 0-6 6-6 16 0 22 6 6 16 6 22 0z m136-45c6-6 6-16 0-22-6-6-16-6-22 0-6 6-6 16 0 22 6 6 16 6 22 0z m-46 45c6-6 6-16 0-22-6-6-15-6-22 0-6 6-6 16 0 22 7 6 16 6 22 0z m-45 45c6-6 6-16 0-22-6-6-16-6-22 0-6 6-6 16 0 22 6 6 16 6 22 0z m0-181c6-6 6-16 0-22-6-6-16-6-22 0-6 6-6 16 0 22 6 6 16 6 22 0z m-45 45c6-6 6-15 0-21-6-6-16-6-22 0-6 6-6 15 0 21 6 6 16 6 22 0z m-46 46c7-6 7-16 0-22-6-6-15-6-21 0-6 6-6 16 0 22 6 6 15 6 21 0z m-362-113c-6-6-16-6-22 0-6 6-6 16 0 22 6 6 16 6 22 0 6-6 6-16 0-22z m45 46c-6-6-15-6-21 0-6 6-6 15 0 21 6 6 15 6 21 0 7-6 7-15 0-21z m46 45c-6-6-16-6-22 0-6 6-6 16 0 22 6 6 16 6 22 0 6-6 6-16 0-22z m-136-45c-6-6-16-6-22 0-6 6-6 15 0 21 6 7 16 7 22 0 6-6 6-15 0-21z m45 45c-6-6-16-6-22 0-6 6-6 16 0 22 6 6 16 6 22 0 6-6 6-16 0-22z m45 45c-6-6-15-6-21 0-6 6-6 16 0 22 6 6 15 6 21 0 7-6 7-16 0-22z m-135-45c-6-6-16-6-22 0-6 6-6 16 0 22 6 6 16 6 22 0 6-6 6-16 0-22z m45 45c-6-6-16-6-22 0-6 6-6 16 0 22 6 6 16 6 22 0 6-6 6-16 0-22z m45 45c-6-6-16-6-22 0-6 7-6 16 0 22 6 6 16 6 22 0 6-6 6-15 0-22z m408-588c-6-6-16-6-22 0-6 6-6 16 0 22 6 6 16 6 22 0 6-6 6-16 0-22z m45 45c-6-6-16-6-22 0-6 6-6 16 0 22 6 6 16 6 22 0 6-6 6-16 0-22z m45 45c-6-6-15-6-22 0-6 6-6 16 0 22 7 6 16 6 22 0 6-6 6-16 0-22z m-45-136c-6-6-16-6-22 0-6 6-6 16 0 22 6 6 16 6 22 0 6-6 6-16 0-22z m45 46c-6-6-15-6-22 0-6 6-6 16 0 22 7 6 16 6 22 0 6-6 6-16 0-22z m46 45c-6-6-16-6-22 0-6 6-6 16 0 22 6 6 16 6 22 0 6-6 6-16 0-22z m-182 0c-6-6-15-6-21 0-6 6-6 16 0 22 6 6 15 6 21 0 7-6 7-16 0-22z m46 45c-6-6-16-6-22 0-6 6-6 16 0 22 6 6 16 6 22 0 6-6 6-16 0-22z m45 46c-6-6-16-6-22 0-6 6-6 15 0 21 6 7 16 7 22 0 6-6 6-15 0-21z" horiz-adv-x="1000" />

<glyph glyph-name="002-ambulance" unicode="&#xe801;" d="M956 623h-117c-8 0-14-7-14-15s6-15 14-15h117c8 0 15-6 15-14v-319h-32v287c0 8-6 15-14 15h-425c-8 0-15-7-15-15v-211c0-8 7-14 15-14s15 6 15 14v197h395v-273h-395v13c0 8-7 14-15 14s-15-6-15-14v-13h-31l0 319c0 8 7 14 15 14h306c8 0 15 7 15 15s-7 15-15 15h-306c-25 0-44-20-44-44v-17h-32v15c0 25-20 45-45 45s-45-20-45-45v-15h-43c-29 0-56-19-66-48l-73-200-59-41c-20-13-32-36-32-61v-134h-15c-8 0-15-7-15-15v-62c0-8 7-15 15-15h116c17-35 54-60 96-60s79 25 96 60h84c9 0 15 7 15 15s-6 15-15 15h-75c1 11 1 22-1 33h342c-2-11-2-22-1-33h-201c-8 0-14-7-14-15s6-15 14-15h210c17-35 54-60 96-60s79 25 95 60h113c8 0 15 7 15 15v578c0 24-20 44-44 44z m-623-46c0 9 7 16 15 16s16-7 16-16v-15h-31z m-124-105h155v-153h-210z m-86-456h-94v33h94c-2-11-2-22 0-33z m104-61c-42 0-76 34-76 76s34 77 76 77 76-34 76-77-34-76-76-76z m198 123h-103c-17 35-53 59-95 59s-78-24-95-59h-72v92h365z m0 121h-365c-1 10 0 23 3 31h362z m0 61h-331l44 30h241c8 0 14 6 14 14v182c0 9-6 15-14 15h-159c7 17 21 32 40 32h165v-273z m29-30h517v-31h-517z m0-152v92h517v-92h-99c-17 35-53 59-95 59s-78-24-95-59z m323-123c-42 0-76 34-76 76s34 77 76 77 76-34 76-77-34-76-76-76z m194 61h-90c2 11 2 22 0 33h90z m-228 485h-61c-8 0-15-6-15-15v-46h-46c-8 0-14-6-14-14v-61c0-8 6-14 14-14h46v-47c0-8 7-14 15-14h61c8 0 14 6 14 14v47h46c8 0 15 6 15 14v61c0 8-7 14-15 14h-46v46c0 9-6 15-14 15z m46-90v-31h-46c-8 0-15-7-15-15v-46h-31v46c0 8-7 15-15 15h-46v31h46c8 0 15 7 15 15v46h31v-46c0-8 7-15 15-15z m-441 273c8 0 15 7 15 15v61c0 8-7 14-15 14s-14-6-14-14v-61c0-8 6-15 14-15z m-90-39c3-3 7-4 11-4s7 1 10 4c6 6 6 15 0 21l-43 43c-6 5-15 5-21 0-5-6-5-15 0-21z m168-4c4 0 8 1 11 4l42 43c6 6 6 15 0 21-5 5-15 5-20 0l-43-43c-6-6-6-15 0-21 3-3 6-4 10-4z m-199-565c-25 0-45-20-45-45 0-24 20-45 45-45 25 0 45 21 45 45s-20 45-45 45z m0-60c-9 0-16 7-16 15s7 16 16 16 16-7 16-16-7-15-16-15z m550 60c-25 0-45-20-45-45 0-24 20-45 45-45s45 21 45 45-20 45-45 45z m0-60c-9 0-16 7-16 15s7 16 16 16 16-7 16-16-7-15-16-15z" horiz-adv-x="1000" />

<glyph glyph-name="003-medicine" unicode="&#xe802;" d="M364 775v-61c0-8 7-15 15-15s14 7 14 15v61c0 8-6 14-14 14s-15-6-15-14z m-61 0v-61c0-8 7-15 15-15s15 7 15 15v61c0 8-7 14-15 14s-15-6-15-14z m122 0v-61c0-8 6-15 14-15s15 7 15 15v61c0 8-7 14-15 14s-14-6-14-14z m60 0v-61c0-8 7-15 15-15 8 0 15 7 15 15v61c0 8-7 14-15 14-8 0-15-6-15-14z m76-76c8 0 14 7 14 15v61c0 8-6 14-14 14s-15-6-15-14v-61c0-8 7-15 15-15z m75 15v61c0 8-7 14-15 14s-14-6-14-14v-61c0-8 6-15 14-15s15 7 15 15z m61 0v61c0 8-7 14-15 14s-15-6-15-14v-61c0-8 7-15 15-15s15 7 15 15z m92-183l-92 69v39h16c25 0 44 19 44 44v123c0 24-19 44-44 44h-120c-8 0-15-7-15-15s7-14 15-14h120c9 0 15-7 15-15v-123c0-8-6-15-15-15h-426c-8 0-15 7-15 15v123c0 8 7 15 15 15h242c8 0 14 6 14 14s-6 15-14 15h-242c-25 0-44-20-44-44v-123c0-25 19-44 44-44h16v-39l-92-69c-18-14-29-36-29-59v-242c0-8 7-14 15-14s14 6 14 14v242c0 14 7 27 18 36l94 70 354 0 94-70c11-9 18-22 18-36v-549c0-24-20-44-44-44h-490c-24 0-44 20-44 44v243c0 9-6 15-14 15s-15-6-15-15v-243c0-40 33-73 73-73h490c40 0 73 33 73 73v549c0 23-11 45-29 59z m-122 108v-32h-334v32z m84-156l-80 61c-3 2-6 3-9 3 0 0 0 0 0 0l-324 0c-3 0-6-2-9-3l-80-61c-4-3-6-7-6-12v-546c0-8 6-14 14-14h211c8 0 15 6 15 14s-7 15-15 15h-196v31h456v-31h-196c-8 0-15-7-15-15s7-14 15-14h211c8 0 14 6 14 14v546c0 5-2 9-6 12z m-408 34l314 0 71-53v-39h-456v39z m-71-516v395h456v-395h-456z m92 303c-34 0-61-27-61-60v-91c0-33 27-60 61-60s60 27 60 60v91c0 33-27 60-60 60z m0-29c17 0 30-14 30-31v-31h-61v31c0 17 14 31 31 31z m0-153c-17 0-31 14-31 31v31h61v-31c0-17-13-31-30-31z m136 153h182c8 0 15 6 15 14s-7 15-15 15h-182c-8 0-15-6-15-15s7-14 15-14z m182-31h-182c-8 0-15-7-15-15s7-15 15-15h182c8 0 15 7 15 15s-7 15-15 15z m0-61h-182c-8 0-15-7-15-15s7-14 15-14h182c8 0 15 6 15 14s-7 15-15 15z m0-61h-182c-8 0-15-6-15-14s7-15 15-15h182c8 0 15 7 15 15s-7 14-15 14z" horiz-adv-x="1000" />

<glyph glyph-name="004-pill" unicode="&#xe803;" d="M714 850h-428c-41 0-74-33-74-73v-365c0-8 7-14 15-14s15 6 15 14v365c0 24 19 44 44 44h428c25 0 44-20 44-44v-854c0-24-19-44-44-44h-428c-25 0-44 20-44 44v425c0 9-7 15-15 15s-15-6-15-15v-425c0-40 33-73 74-73h428c41 0 74 33 74 73v854c0 40-33 73-74 73z m-246-61h-151c-24 0-44-19-44-44v-790c0-25 20-44 44-44h242c8 0 15 6 15 14s-7 15-15 15h-242c-8 0-15 7-15 15v790c0 8 7 15 15 15h151c8 0 15 7 15 15s-7 14-15 14z m155-878h60c24 0 44 19 44 44v790c0 25-20 44-44 44h-151c-8 0-15-6-15-14s7-15 15-15h151c8 0 15-7 15-15v-790c0-8-7-15-15-15h-60c-8 0-15-7-15-15s7-14 15-14z m-184 757h-60c-25 0-45-20-45-45 0-25 20-45 45-45h60c25 0 45 20 45 45s-20 45-45 45z m-76-45c0 9 7 16 16 16h15v-32h-15c-9 0-16 7-16 16z m76-16h-15v32h15c9 0 16-7 16-16s-7-16-16-16z m122-29h60c25 0 45 20 45 45s-20 45-45 45h-60c-25 0-45-20-45-45s20-45 45-45z m76 45c0-9-7-16-16-16h-15v32h15c9 0 16-7 16-16z m-76 16h15v-32h-15c-9 0-16 7-16 16s7 16 16 16z m-122-92h-60c-25 0-45-21-45-45 0-25 20-45 45-45h60c25 0 45 20 45 45 0 24-20 45-45 45z m-76-45c0 8 7 15 16 15h15v-31h-15c-9 0-16 7-16 16z m76-16h-15v31h15c9 0 16-7 16-15s-7-16-16-16z m122-29h60c25 0 45 20 45 45s-20 45-45 45h-60c-25 0-45-21-45-45s20-45 45-45z m76 45c0-9-7-16-16-16h-15v31h15c9 0 16-7 16-15z m-76 15h15v-31h-15c-9 0-16 7-16 16s7 15 16 15z m-122-92h-60c-25 0-45-20-45-45 0-24 20-45 45-45h60c25 0 45 21 45 45s-20 45-45 45z m-76-45c0 9 7 16 16 16h15v-31h-15c-9 0-16 7-16 15z m76-15h-15v31h15c9 0 16-7 16-16s-7-15-16-15z m122-30h60c25 0 45 21 45 45s-20 45-45 45h-60c-25 0-45-20-45-45s20-45 45-45z m76 45c0-8-7-15-16-15h-15v31h15c9 0 16-7 16-16z m-76 16h15v-31h-15c-9 0-16 7-16 15s7 16 16 16z m-122-92h-60c-25 0-45-20-45-45s20-45 45-45h60c25 0 45 20 45 45s-20 45-45 45z m-76-45c0 9 7 16 16 16h15v-32h-15c-9 0-16 7-16 16z m76-16h-15v32h15c9 0 16-7 16-16s-7-16-16-16z m122-29h60c25 0 45 20 45 45s-20 45-45 45h-60c-25 0-45-20-45-45s20-45 45-45z m76 45c0-9-7-16-16-16h-15v32h15c9 0 16-7 16-16z m-76 16h15v-32h-15c-9 0-16 7-16 16s7 16 16 16z m-122-92h-60c-25 0-45-20-45-45s20-45 45-45h60c25 0 45 20 45 45s-20 45-45 45z m-76-45c0 8 7 15 16 15h15v-31h-15c-9 0-16 7-16 16z m76-16h-15v31h15c9 0 16-7 16-15s-7-16-16-16z m122-29h60c25 0 45 20 45 45s-20 45-45 45h-60c-25 0-45-20-45-45s20-45 45-45z m76 45c0-9-7-16-16-16h-15v31h15c9 0 16-7 16-15z m-76 15h15v-31h-15c-9 0-16 7-16 16s7 15 16 15z m-122-92h-60c-25 0-45-20-45-45s20-45 45-45h60c25 0 45 21 45 45s-20 45-45 45z m-76-45c0 9 7 16 16 16h15v-31h-15c-9 0-16 7-16 15z m76-15h-15v31h15c9 0 16-7 16-16s-7-15-16-15z m122-30h60c25 0 45 21 45 45 0 25-20 45-45 45h-60c-25 0-45-20-45-45s20-45 45-45z m76 45c0-8-7-15-16-15h-15v31h15c9 0 16-7 16-16z m-76 16h15v-31h-15c-9 0-16 7-16 15s7 16 16 16z m-167 682c0-8 7-15 15-15h182c8 0 15 7 15 15s-7 15-15 15h-182c-8 0-15-7-15-15z" horiz-adv-x="1000" />

<glyph glyph-name="005-first-aid-kit" unicode="&#xe804;" d="M985 638h-228v46c0 8-6 14-14 14h-16v18c0 57-46 104-104 104h-91c-8 0-15-7-15-15s7-15 15-15h91c41 0 75-33 75-74v-18h-32v18c0 24-19 43-43 43h-246c-24 0-43-19-43-43v-18h-32v18c0 41 34 74 75 74h91c8 0 15 7 15 15s-7 15-15 15h-91c-58 0-104-47-104-104v-18h-16c-8 0-14-6-14-14v-46h-228c-8 0-15-7-15-15v-728c0-8 7-15 15-15h970c8 0 15 7 15 15v728c0 8-7 15-15 15z m-257 0h-92v31h92z m-365 78c0 8 6 14 14 14h246c8 0 14-6 14-14v-18h-16c-8 0-14-6-14-14v-46h-214v46c0 8-6 14-14 14h-16z m-91-47h92v-31h-92z m-243-61h942v-213h-942z m728-242h62v-92h-62z m-576 0h62v-92h-62z m790-456h-942v456h32v-166c0-8 6-15 14-15s15 7 15 15v166h62v-107c0-8 6-14 14-14h91c8 0 15 6 15 14v107h456v-107c0-8 7-14 15-14h91c8 0 14 6 14 14v107h62v-396h-62v107c0 8-6 15-14 15h-91c-8 0-15-7-15-15v-107h-456v107c0 8-7 15-15 15h-91c-8 0-14-7-14-15v-107h-62v166c0 8-7 15-15 15s-14-7-14-15v-180c0-8 6-15 14-15h850c8 0 14 7 14 15v410h32v-456z m-214 60v93h62v-93z m-576 0v93h62v-93z m744 456c8 0 14 7 14 15v121c0 8-6 15-14 15h-150c-8 0-15-7-15-15s7-14 15-14h135v-92h-820v92h621c8 0 14 6 14 14s-6 15-14 15h-636c-8 0-14-7-14-15v-121c0-8 6-15 14-15z m-470-303v-46c0-8 7-15 15-15h60c8 0 15 7 15 15v46h46c8 0 15 7 15 15v60c0 8-7 15-15 15h-46v46c0 8-7 15-15 15h-60c-8 0-15-7-15-15v-46h-46c-8 0-15-7-15-15v-60c0-8 7-15 15-15z m-31 61h46c8 0 14 6 14 14v46h32v-46c0-8 6-14 14-14h46v-32h-46c-8 0-14-6-14-14v-46h-32v46c0 8-6 14-14 14h-46z m76-182c92 0 166 74 166 166s-74 166-166 166-166-74-166-166c0-92 74-166 166-166z m0 303c76 0 137-61 137-137 0-76-61-137-137-137s-137 61-137 137c0 76 61 137 137 137z" horiz-adv-x="1000" />

<glyph glyph-name="006-medical-record" unicode="&#xe805;" d="M404 786c6-6 6-16 0-22-6-6-16-6-22 0-6 6-6 16 0 22 6 6 16 6 22 0z m537-179h-48v47c0 8-7 14-15 14h0v46c0 8-7 15-15 15h-61c-8 0-14-7-14-15v-46h-1c-8 0-14-6-14-14v-195c0-8 6-15 14-15s15 7 15 15v119h61v-274h-61v91c0 8-7 14-15 14s-14-6-14-14l0-318c0-8 6-15 14-15h1v-45c0-3 1-7 4-10l26-27v-39c0-8 7-15 15-15s14 7 14 15v39l27 27c2 3 4 7 4 10v45h0c8 0 15 7 15 15l0 501h33v-167c0-8 7-15 15-15s14 7 14 15v182c0 8-6 14-14 14z m-139-515v183h61v-183h0-61z m46-69l-15-16-16 16v39h31z m-31 676h31v-31h-31z m-15-92v32h0c0 0 0 0 0 0h61c0 0 0 0 0 0h0v-32z m-75 182h-260c-7 35-38 61-74 61s-67-26-74-61h-260c-8 0-14-6-14-14v-910c0-8 6-15 14-15h356c8 0 15 7 15 15s-7 14-15 14h-341v881h133v-31h-87c-8 0-15-7-15-15v-217c0-8 7-15 15-15s15 7 15 15v202h72v-15c0-8 7-15 15-15h342c8 0 15 7 15 15v15h72v-759h-516v493c0 8-7 15-15 15s-15-7-15-15v-508c0-8 7-14 15-14h546c8 0 15 6 15 14v789c0 8-7 15-15 15h-87v31h133v-881h-233c-8 0-15-6-15-14s7-15 15-15h248c8 0 14 7 14 15v910c0 8-6 14-14 14z m-491-91v62h96c8 0 15 7 15 15 0 25 21 46 46 46s46-21 46-46c0-8 7-15 15-15h96v-62z m328-455h-201c-8 0-15-6-15-14s7-15 15-15h201c8 0 15 7 15 15s-7 14-15 14z m0-60h-201c-8 0-15-7-15-15s7-15 15-15h201c8 0 15 7 15 15s-7 15-15 15z m0-61h-201c-8 0-15-6-15-15s7-14 15-14h201c8 0 15 6 15 14s-7 15-15 15z m-368 107c0-8 7-15 15-15h91c8 0 15 7 15 15s-7 14-15 14h-91c-8 0-15-6-15-14z m15-76h91c8 0 15 7 15 15s-7 15-15 15h-91c-8 0-15-7-15-15s7-15 15-15z m0-60h91c8 0 15 6 15 14s-7 15-15 15h-91c-8 0-15-6-15-15s7-14 15-14z m350-61h-114c-8 0-15-6-15-15s7-14 15-14h114c8 0 15 6 15 14s-7 15-15 15z m-168 606c-92 0-166-75-166-167s74-166 166-166 166 75 166 166-74 167-166 167z m0-304c-76 0-137 62-137 137s61 137 137 137 137-61 137-137-61-137-137-137z m45 182v46c0 9-7 15-15 15h-60c-8 0-15-6-15-15v-46h-46c-8 0-15-6-15-14v-61c0-8 7-15 15-15h46v-46c0-8 7-14 15-14h60c8 0 15 6 15 14v46h46c8 0 15 7 15 15v61c0 8-7 14-15 14z m31-60h-46c-8 0-14-7-14-15v-46h-32v46c0 8-6 15-14 15h-46v31h46c8 0 14 7 14 15v46h32v-46c0-8 6-15 14-15h46z" horiz-adv-x="1000" />

<glyph glyph-name="007-medical-app" unicode="&#xe806;" d="M774 850h-242c-8 0-15-7-15-15s7-14 15-14h84l-31-32h-170l-31 32h84c8 0 15 6 15 14s-7 15-15 15h-242c-24 0-44-20-44-44v-788c0-8 7-15 15-15s14 7 14 15v788c0 8 7 15 15 15h116l57-57c2-2 6-4 10-4h182c4 0 8 2 10 4l57 57h116c8 0 15-7 15-15v-912c0-8-7-15-15-15h-548c-8 0-15 7-15 15v60c0 8-6 15-14 15s-15-7-15-15v-60c0-24 20-44 44-44h548c24 0 44 20 44 44v912c0 24-20 44-44 44z m-274-576c92 0 166 75 166 166s-74 167-166 167-166-75-166-167 74-166 166-166z m0 303c76 0 137-61 137-137s-61-137-137-137-137 62-137 137 62 137 137 137z m-45-182v-46c0-8 7-14 15-14h60c8 0 15 6 15 14v46h46c8 0 15 7 15 15v61c0 8-7 14-15 14h-46v46c0 8-7 15-15 15h-60c-8 0-15-7-15-15v-46h-46c-8 0-15-6-15-14v-61c0-8 7-15 15-15z m-31 61h46c8 0 14 7 14 15v46h32v-46c0-8 6-15 14-15h46v-31h-46c-8 0-14-7-14-15v-46h-32v46c0 8-6 15-14 15h-46z m319 8c8 0 14 7 14 15v235c0 8-6 15-14 15h-486c-8 0-14-7-14-15v-728c0-8 6-15 14-15h486c8 0 14 7 14 15v429c0 8-6 14-14 14s-15-6-15-14v-414h-456v698h456v-220c0-8 7-15 15-15z m-334-341c-8 0-15-7-15-15s7-14 15-14h182c8 0 15 6 15 14s-7 15-15 15z m30-183c-8 0-14-7-14-15s6-14 14-14h122c8 0 14 6 14 14s-6 15-14 15z m227 228v60c0 9-6 15-14 15h-304c-8 0-14-6-14-15v-60c0-8 6-14 14-14h304c8 0 14 6 14 14z m-29 15h-274v31h274z" horiz-adv-x="1000" />

<glyph glyph-name="008-iv-bag" unicode="&#xe807;" d="M329 786c6-6 6-16 0-22-6-6-16-6-22 0-6 6-6 16 0 22 6 6 16 6 22 0z m-120-26h48c8 0 15 7 15 15 0 12 5 24 14 32s20 14 32 14c25 0 46-21 46-46 0-8 7-15 15-15h167v-257c0-8 7-14 15-14s14 6 14 14v272c0 8-6 14-14 14h-169c-7 35-37 61-74 61-20 0-39-8-53-22-11-11-18-24-21-39h-35c-8 0-14-6-14-14s6-15 14-15z m-73-489c-8 0-15-6-15-14v-30c0-41 33-74 74-74h246c41 0 74 33 74 74v427c0 8-7 14-15 14h-364c-8 0-15-6-15-14v-333c0-8 7-15 15-15s15 7 15 15v136h31v-168c0-8 7-14 15-14h242c8 0 15 6 15 14v168h31v-230c0-25-19-44-44-44h-246c-25 0-44 19-44 44v30c0 8-7 14-15 14z m289 33h-214v213h214z m29 182v46c0 8-7 15-15 15h-242c-8 0-15-7-15-15v-46h-31v153h334v-153h-31z m-197-29h122c8 0 14 6 14 14s-6 15-14 15h-122c-8 0-14-7-14-15s6-14 14-14z m0-61h122c8 0 14 7 14 15s-6 14-14 14h-122c-8 0-14-6-14-14s6-15 14-15z m0-61h122c8 0 14 7 14 15s-6 15-14 15h-122c-8 0-14-7-14-15s6-15 14-15z m607-243h-16v15c0 8-6 15-14 15s-15-7-15-15v-15h-16c-8 0-14-7-14-15s6-15 14-15h16v-15c0-8 7-15 15-15s14 7 14 15v15h16c8 0 15 7 15 15s-7 15-15 15z m-16 142v511c0 58-47 105-105 105s-106-47-106-105v-790c0-42-34-76-76-76h-152c-42 0-76 34-76 76v16h31c8 0 14 7 14 15v46h16c8 0 15 7 15 15v46h64c56 0 102 46 102 102v245c0 8-6 14-14 14s-15-6-15-14v-245c0-40-33-73-73-73h-310c-40 0-73 33-73 73v565h55c8 0 15 7 15 15s-7 14-15 14h-70c-8 0-14-6-14-14v-580c0-56 46-102 102-102h65v-46c0-8 6-15 14-15h16v-46c0-8 6-15 15-15h30v-16c0-58 48-105 106-105h152c58 0 105 47 105 105v790c0 42 35 76 77 76s76-34 76-76v-511c-19-22-91-107-91-157 0-58 47-106 105-106s106 48 106 106c0 50-72 135-91 157z m-591-141h122v-32h-122z m30-92v31h62v-31z m546 0c-42 0-76 34-76 76 0 30 43 90 76 129 34-39 77-99 77-129 0-42-34-76-77-76z" horiz-adv-x="1000" />

<glyph glyph-name="009-medical-record" unicode="&#xe808;" d="M956 92h-17v511c0 19-15 35-34 35h-117v106c0 9-7 15-15 15h-95c-8 0-15-6-15-15s7-14 15-14h80v-638h-516v638h372c8 0 15 6 15 14s-7 15-15 15h-387c-8 0-15-6-15-15v-106h-117c-19 0-34-16-34-35v-511h-17c-24 0-44-20-44-44v-63c0-24 20-44 44-44h697c8 0 15 6 15 15s-7 14-15 14h-697c-8 0-15 7-15 15v63c0 8 7 14 15 14h320v-46c0-8 7-14 15-14h242c8 0 15 6 15 14v46h320c8 0 15-6 15-14v-63c0-8-7-15-15-15h-151c-8 0-15-6-15-14s7-15 15-15h151c24 0 44 20 44 44v63c0 24-20 44-44 44z m-820 325c-8 0-15-7-15-15v-310h-31v511c0 3 2 5 5 5h117v-31h-76c-8 0-15-7-15-15v-96c0-8 7-15 15-15s15 7 15 15v82h61v-456h-61v310c0 8-7 15-15 15z m471-386h-214v31h214z m181 61v456h61v-456z m91 0v470c0 8-7 15-15 15h-76v31h117c3 0 5-2 5-5v-511z m-379 599c-92 0-166-74-166-166s74-166 166-166 166 74 166 166-74 166-166 166z m0-303c-75 0-137 62-137 137s62 137 137 137 137-61 137-137-61-137-137-137z m91 182h-46v46c0 8-7 15-15 15h-60c-8 0-15-7-15-15v-46h-46c-8 0-15-6-15-15v-60c0-8 7-15 15-15h46v-46c0-8 7-15 15-15h60c8 0 15 7 15 15v46h46c8 0 15 7 15 15v60c0 9-7 15-15 15z m-15-61h-46c-8 0-14-6-14-14v-46h-32v46c0 8-6 14-14 14h-46v32h46c8 0 14 6 14 14v46h32v-46c0-8 6-14 14-14h46z m45-175h-242c-8 0-15-6-15-14s7-15 15-15h242c8 0 15 7 15 15s-7 14-15 14z m0-60h-242c-8 0-15-7-15-15s7-15 15-15h242c8 0 15 7 15 15s-7 15-15 15z m0-61h-242c-8 0-15-7-15-15s7-14 15-14h242c8 0 15 6 15 14s-7 15-15 15z m0-61h-242c-8 0-15-6-15-14s7-15 15-15h242c8 0 15 7 15 15s-7 14-15 14z" horiz-adv-x="1000" />

<glyph glyph-name="010-eye-dropper" unicode="&#xe809;" d="M591 562c-8 0-15-7-15-15v-30c0-8 7-15 15-15s15 7 15 15v30c0 8-7 15-15 15z m61-60c8 0 14 7 14 15v30c0 8-6 15-14 15s-15-7-15-15v-30c0-8 7-15 15-15z m60 0c8 0 15 7 15 15v30c0 8-7 15-15 15s-14-7-14-15v-30c0-8 6-15 14-15z m122-377c8 0 14 6 14 14v180c0 24-12 47-32 61l-59 39v38h16c8 0 15 6 15 14v122c0 8-7 14-15 14h-46v168c0 41-34 75-75 75-42 0-76-34-76-75v-29c0-8 7-15 15-15s15 7 15 15v29c0 25 20 46 46 46 25 0 46-21 46-46v-168h-92v75c0 8-7 15-15 15s-15-7-15-15v-75h-46c-8 0-14-6-14-14v-122c0-8 6-14 14-14h16v-38l-58-39c-21-14-33-37-33-61v-396c0-40 33-73 73-73h247c41 0 73 33 73 73v152c0 9-6 15-14 15s-15-6-15-15v-152c0-24-20-44-44-44h-247c-24 0-44 20-44 44v396c0 14 8 28 20 36l65 44c4 2 6 7 6 12v46h32v-71l-85-56c-4-3-6-8-6-12v-393c0-8 6-14 14-14h243c8 0 15 6 15 14v393c0 4-3 9-7 12l-84 56v71h31v-46c0-5 3-10 7-12l65-44c12-8 19-22 19-36v-180c0-8 7-14 15-14z m-289 453h213v-92h-213z m213-517h-213v153h213z m-213-121v92h213v-92z m129 426l84-56v-67h-213v67l85 56c4 3 6 7 6 12v79h31v-79c0-5 3-9 7-12z m-265-123h-46v289c0 2-1 5-2 7l-28 57v148c-3 28-18 43-45 45-25 0-45-20-45-45v-148l-29-57c-1-2-2-5-2-7v-94c0-8 7-15 15-15s15 7 15 15v91l28 57c1 2 2 4 2 7v151c0 9 7 16 16 16 9-1 15-6 15-16v-151c0-3 1-5 2-7l29-57v-286h-32v289c0 8-6 15-14 15s-15-7-15-15v-289h-31v131c0 8-7 15-15 15s-15-7-15-15v-131h-46c-8 0-14-6-14-14v-122c0-8 6-14 14-14h46v-168c0-41 34-75 76-75s75 34 75 75v168h46c8 0 15 6 15 14v122c0 8-7 14-15 14z m-75-318c0-25-21-46-46-46s-46 21-46 46v168h92v-168z m60 197h-213v92h213z m-167 76c-8 0-15-7-15-15v-30c0-8 7-15 15-15s15 7 15 15v30c0 8-7 15-15 15z m46-15v-30c0-8 7-15 15-15s14 7 14 15v30c0 8-6 15-14 15s-15-7-15-15z m75-45c8 0 15 7 15 15v30c0 8-7 15-15 15s-14-7-14-15v-30c0-8 6-15 14-15z m243 15h121c8 0 15 7 15 15s-7 15-15 15h-121c-8 0-15-7-15-15s7-15 15-15z m121-31h-121c-8 0-15-7-15-15s7-14 15-14h121c8 0 15 6 15 14s-7 15-15 15z" horiz-adv-x="1000" />

<glyph glyph-name="011-microscope" unicode="&#xe80a;" d="M842-60h-89c-8 0-15-7-15-15s7-14 15-14h74v-32h-274v32h136c8 0 14 6 14 14s-6 15-14 15h-136v31h154c16 0 28 13 28 29l0 93h77c8 0 14 6 14 14v61c0 8-6 15-14 15h-243c-8 0-15-7-15-15v-61c0-8 7-14 15-14h76v-32h-102c-17 36-53 61-95 61-30 0-58-13-77-33-67 28-112 95-112 169 0 73 46 142 114 169 28-28 76-38 114-23l43-76-13-7c-7-4-10-13-6-20l31-53c6-7 12-9 20-5l66 38 23-40c4-7 13-9 20-5l52 30c7 4 10 13 6 20l-23 40 66 38c7 5 9 12 5 20l-30 53c-4 7-13 9-20 5l-14-8-76 133c-4 7-13 9-20 5s-10-13-6-20l77-133-132-76-44 75c25 19 41 50 41 84 0 58-47 105-105 105-15 0-28-3-40-8l-20 35 132 76 59-103c4-7 13-9 20-5 7 4 10 13 6 20l-67 116c-5 7-12 9-20 5l-40-23-16 27 14 8c5 3 8 8 7 13l-4 68c-1 13-12 17-22 12l-157-91c-10-8-13-17-1-25l57-37c5-3 10-4 15-1l14 8 15-27-40-23c-7-4-9-13-5-20l27-47c-13-11-24-25-31-41-112-36-194-136-207-253-1-8 4-15 13-16 0 0 1 0 1 0 8 0 14 6 15 13 4 43 19 83 41 117l45-40c-19-32-29-69-29-107 0-84 49-159 124-193-9-18-13-39-12-59-93 37-158 122-169 221-1 9-8 14-16 13-9 0-14-8-13-16 12-114 90-211 198-249v-35h-167c-8 0-15-7-15-15v-60c0-9 7-15 15-15h667c8 0 15 6 15 15v60c0 8-7 15-15 15z m-258 213h213v-31h-213z m112 131l-27-16-16 28 27 15z m33 125l15-27-184-107-16 28z m-365 315l-29 19 116 68 3-35z m62-34l-16 27 27 15 16-27z m98-188c0-42-34-77-76-77s-77 35-77 77 35 76 77 76 76-34 76-76z m-169-51c-13-5-24-12-35-20l-42 42c19 15 41 27 64 37-1-20 4-42 13-59z m-123-22c7 9 15 17 23 25l42-41c-8-8-15-15-22-24z m428-397c8 0 15 7 15 15v46h31l0-92h-153c1 10 1 21-1 31z m-212 61c42 0 76-35 76-77v-137h-153v137c0 42 35 77 77 77z m-259-182h153v-32h-153z m259 60c24 0 45 20 45 45s-21 45-45 45-45-20-45-45 20-45 45-45z m0 61c8 0 15-7 15-16s-7-15-15-15-16 7-16 15 7 16 16 16z m0 425c24 0 45 20 45 45s-21 45-45 45-45-21-45-45 20-45 45-45z m0 60c8 0 15-7 15-15s-7-16-15-16-16 7-16 16 7 15 16 15z" horiz-adv-x="1000" />

<glyph glyph-name="012-dental-care" unicode="&#xe80b;" d="M653 578h61c8 0 15 7 15 15v46h46c8 0 14 6 14 14v61c0 8-6 15-14 15h-46v46c0 8-7 14-15 14h-61c-8 0-14-6-14-14v-46h-46c-9 0-15-7-15-15v-61c0-8 6-14 15-14h46v-46c0-8 6-15 14-15z m-46 90v31h46c8 0 15 7 15 15v46h31v-46c0-8 7-15 15-15h46v-31h-46c-8 0-15-7-15-15v-46h-31v46c0 8-7 15-15 15h-46z m228-2c-8 2-16-3-17-11-14-63-70-108-134-108-76 0-137 61-137 137 0 75 61 137 137 137 64 0 120-46 134-108 1-8 9-13 17-12 8 2 13 10 11 18-16 75-86 131-162 131-92 0-167-75-167-166 0-31 9-59 23-84-22-7-45-20-64-32-13-7-29-6-41 1-26 20-57 35-90 38-8 0-15-5-15-14-1-8 5-15 13-15 27-3 54-16 76-33 23-14 47-15 71-3 20 13 45 27 68 33 10-11 20-21 32-29-29 1-61-15-85-31-32-18-72-17-103 3-24 18-53 30-82 28-58 0-105-48-105-108v-195c0-17 9-30 23-37 12-7 26-19 41-36 21-27 63-28 86-2 23 24 57 39 89 39 33 0 72-16 97-40 25-23 66-20 87 8 11 15 22 25 33 31 14 7 23 21 23 37v93c0 8-7 14-15 14s-15-6-15-14v-93c0-5-2-9-6-11-15-7-30-21-44-40-13-14-27-15-43-3-31 29-77 48-117 48-40 0-82-19-110-50-15-12-29-12-43 2-17 20-34 35-50 43-4 2-7 1-7 11v195c0 43 34 79 76 79 24 0 47-8 66-24 40-25 92-27 133-4l34 19c51 28 111-15 111-70v-39c0-8 7-14 15-14s15 6 15 14v39c0 32-14 62-36 81 14-2 28-2 43-1 16-23 25-51 25-80v-195c0-28-16-54-41-66-30-15-52-45-56-79l-22-188c0 0 0 0 0 0-2-18-16-31-33-31-18 2-29 12-32 30l-23 207c-4 34-32 59-65 59-33 0-61-26-65-58l-26-213c-3-14-15-25-30-25-16 0-28 15-30 30l-24 189c-4 35-25 64-55 79-24 14-41 38-41 66v195c0 63 42 119 101 135 8 2 13 10 10 18-2 8-10 13-18 10-72-19-122-87-122-163v-195c0-38 23-75 57-92 21-11 36-32 39-56l24-189c2-31 28-56 59-56 28 0 55 21 59 50l26 213c4 20 16 31 36 33 18 0 34-14 36-33l23-208c4-30 30-55 61-55 32 0 59 24 62 57l23 187c3 26 16 45 39 57 35 17 57 53 57 92v195c0 31-8 60-23 87 56 17 102 66 114 124 2 8-3 15-11 17z" horiz-adv-x="1000" />

<glyph glyph-name="013-glove" unicode="&#xe80c;" d="M460 120v323c0 8-7 15-15 15s-15-7-15-15v-321h-253s0 114 0 114c-1 17-15 36-32 59-30 40-47 79-64 125-15 40-29 78-51 123-1 4 0 6 2 7 3 4 12 6 25 0 29-14 40-38 54-69 8-17 12-25 25-33 55-28 85-54 82-106 0-8 6-15 14-16 1 0 1 0 1 0 8 0 14 6 15 14 3 63-33 97-75 121 2 5 4 10 4 15v253c0 12 9 21 21 21 10 0 20-10 20-21v-247c0-8 7-14 15-14s15 6 15 14l0 318c0 11 9 21 20 21 13-1 20-8 21-21l0-318c0-8 7-14 15-14s14 6 14 14v283c0 0 0 0 0 0 0 11 10 20 21 20 13-1 20-8 21-20l0-283c0-8 6-14 14-14s15 6 15 14v177c0 0 0 0 0 0 0 11 9 20 21 20 12-1 19-8 20-20v-152c0-8 7-14 15-14s15 6 15 14v152c1 40-41 59-71 45v61c0 34-42 59-72 45-6 24-22 38-49 40-27 0-50-22-50-50v-25c-6 3-13 4-20 4-28 0-50-22-50-50v-252c-1 0-7 10-10 16-14 32-30 65-69 83-27 13-48 6-58-5-11-11-14-27-7-40 21-44 35-82 50-121 17-48 27-87 67-132 14-15 26-35 27-43v-115c-18-7-31-23-31-43 0-25 21-45 45-45h12v-167c0-8 7-15 15-15s14 7 14 15v167h201v-167c0-8 7-15 15-15s15 7 15 15v167h11c25 0 45 20 45 45 0 20-13 36-30 43z m-15-59h-283c-8 0-15 7-15 16 0 9 7 16 15 16h0 283 0c9 0 16-7 16-16 0-9-7-16-16-16z m549 505c-14 20-44 19-63 10-17-7-30-19-42-34-11-16-19-33-28-52-2-4-8-13-9-12v149c0 8-6 15-14 15s-15-7-15-15c0 0 0-151 0-151 0-5 2-10 5-14-43-25-79-58-76-122 1-22 31-20 30 2-3 52 27 78 83 106 11 7 19 17 22 30 8 17 16 33 26 46 8 12 18 20 30 26 2 0 34 8 27-7-22-45-36-83-51-123-17-46-34-86-64-125-17-23-31-42-32-59 0 0 0-114 0-114h-95c-8 0-14-7-14-15s6-14 14-14h110c9-1 14-6 15-16 0-9-7-16-15-16h-283c-9 1-15 6-16 16 0 9 7 16 16 16h109c9 0 15 6 15 14s-6 15-15 15h-94v537c1 12 8 19 20 20 12 0 21-9 21-20 0 0 0 0 0 0v-177c0-8 7-14 15-14s14 6 14 14l0 283c2 12 8 19 21 20 11 0 21-9 21-20 0 0 0 0 0 0v-283c0-8 6-14 14-14s15 6 15 14l0 318c1 13 8 20 21 21 11 0 20-10 20-21l0-318c0-8 7-14 15-14s15 6 15 14v247c0 11 10 21 20 21 12 0 21-9 21-21v-38c0-8 7-15 15-15s14 7 14 15v38c0 28-22 50-50 50-7 0-14-1-20-4v25c0 28-23 50-50 50-27-2-43-16-49-40-30 14-72-11-72-45v-61c-30 14-71-11-71-45v-539c-17-7-30-22-30-43 0-27 18-42 45-45h11v-167c0-8 7-15 15-15s15 7 15 15v167h201v-167c0-8 6-15 14-15s15 7 15 15v167h12c24 0 44 20 45 45 0 22-10 39-31 43v115c1 8 15 27 27 43 31 41 50 84 68 132 14 39 28 77 49 121 6 11 5 24-2 35z" horiz-adv-x="1000" />

<glyph glyph-name="014-injection" unicode="&#xe80d;" d="M996 846c-6 5-15 5-21 0l-195-195-11 11c-5 5-13 6-19 2l-120-80c-29 22-70 20-97-7l-358-358-11 11c-22 18-43 18-64 0-18-21-18-43 0-64l54-55-65-65-12 11c-17 18-46 18-64 0-17-21-17-43 0-64l42-42c6-6 16-6 21 0 6 6 6 15 0 21l-42 42c-6 7-6 15 0 22 6 6 16 6 23 0l129-130c6-7 6-14 0-22-7-6-15-6-22 0l-42 42c-6 6-15 6-21 0-6-6-6-15 0-21l42-42c21-17 43-17 64 0 18 22 18 43 0 64l-11 11 65 66 55-54c21-18 43-18 64 0 18 21 18 42 0 64l-11 11 265 266c6 6 6 15 0 21-6 5-15 5-21 0l-265-266-22 22 356 357c6 6 6 15 0 21l-86 86c-7 6-14 6-21 0l-258-258c-6-6-6-15 0-21 6-6 15-6 21 0l75 75 22-22-173-174-23 22 54 53c5 6 5 16 0 21-6 6-16 6-21 0l-53-53-23 23 358 358c18 18 46 18 63 0l89-89c17-21 17-42 0-62l-47-48c-6-6-6-15 0-21 5-5 15-5 21 0l47 48c26 25 29 67 7 96l80 120c4 6 3 14-2 19l-11 11 195 195c5 6 5 15 0 21z m-821-755l22-23-65-65-23 22z m66-66l-66-66-22 23 65 65z m118-54c-6-7-16-7-22 0l-216 216c-7 7-7 15 0 22 7 6 15 6 22 0l216-216c6-8 6-15 0-22z m227 530l65-66-109-108-65 65z m-130-130l66-65-23-22-65 65z m0-86l22-22-173-174-22 22z m257 217l-61 61 105 70 26-26z" horiz-adv-x="1000" />

<glyph glyph-name="015-stethoscope" unicode="&#xe80e;" d="M849 302c-8 0-15-6-15-14v-241c0-42-34-77-76-77h-15c-42 0-77 35-77 77v30c0 25-20 45-45 45-24 0-44-20-44-45v-121c0-43-35-77-77-77h-91c-42 0-76 34-76 77v137h31v-137c0-25 20-45 45-45h14c8 0 14 6 14 14s-6 15-14 15h-14c-9 0-16 7-16 16l0 189c0 7 5 13 12 14 134 27 231 145 231 282l0 320c0 41-33 74-74 74h-68c-10 9-24 15-39 15-34 0-61-27-61-60s27-60 61-60c15 0 29 5 39 15h52l0-302c0-109-88-199-196-200-108 0-199 91-199 198v304h51c11-10 25-15 40-15 33 0 60 27 60 60s-27 60-60 60c-15 0-29-6-40-15h-67c-41 0-74-33-74-74v-258c0-8 6-14 14-14s15 6 15 14v75h31v-137c0-124 105-227 229-227 124 1 225 104 225 229v135h32v-137c0-123-87-229-208-253-20-4-35-22-35-43v-23h-31v23c0 21-15 39-35 43-120 24-207 130-208 252 0 8-7 14-15 14 0 0 0 0 0 0-8 0-14-7-14-15 1-135 98-253 231-280 7-1 11-7 11-14l0-189c0-59 48-106 106-106h91c58 0 106 47 106 106v121c0 9 7 16 15 16 9 0 16-7 16-16v-30c0-59 47-106 106-106h15c58 0 106 47 106 106v241c0 8-7 14-15 14z m-576 488c0-17-14-31-31-31s-31 14-31 31 14 31 31 31 31-14 31-31z m-183-183v154c0 24 20 45 45 45h49c-3-11-3-21 0-32h-48c-8 0-15-6-15-15v-152z m334 183c0 17 14 31 31 31s30-14 30-31-13-31-30-31-31 14-31 31z m151-183v152c0 9-6 15-14 15h-48c2 11 2 21 0 32h49c25 0 45-21 45-45v-154z m-287-37c0 0 0 0 0 0-6 0-12-4-14-10l-27-74h-50c-8 0-15-7-15-15s7-14 15-14h60c7 0 12 4 14 9l17 47 43-116c3-6 8-10 14-10 0 0 0 0 0 0 7 1 12 5 14 11l44 138 22-69c2-6 8-10 14-10h61c8 0 15 6 15 14s-7 15-15 15h-50l-33 102c-2 6-8 10-14 10 0 0 0 0 0 0-6 0-12-4-14-10l-45-141-43 113c-2 6-7 10-13 10z m651 158c0 67-54 121-120 121-67 0-121-54-121-121 0-50 31-94 76-112v-569c0-9-7-16-16-16h-15c-9 0-16 7-16 16v30c0 58-47 106-106 106-58 0-105-48-105-106v-121c0-9-7-16-16-16h-13c-9 0-15-7-15-15s6-14 15-14h13c25 0 45 20 45 45v121c0 42 34 76 76 76 43 0 77-34 77-76v-30c0-25 20-45 45-45h15c25 0 45 20 45 45v562c10-2 21-2 31 0v-257c0-8 7-15 15-15s15 7 15 15v264c44 18 75 62 75 112z m-120-91c-51 0-92 41-92 91s41 92 92 92 91-41 91-92-41-91-91-91z m0 152c-34 0-62-27-62-61s28-61 62-61 61 28 61 61-28 61-61 61z m0-93c-18 0-32 15-32 32s14 32 32 32 31-14 31-32-14-32-31-32z" horiz-adv-x="1000" />

<glyph glyph-name="016-healthcare" unicode="&#xe80f;" d="M389 607l81-81c6-6 15-6 21 0 6 5 6 15 0 20l-81 81c-21 22-33 50-33 80 0 63 51 114 114 114 47 0 88-28 105-71 3-6 8-10 14-10h0c6 0 11 4 14 10 17 43 58 71 105 71 63 0 114-51 114-114 0-30-12-58-33-80l-200-199-74 73c-5 6-15 6-20 0-6-6-6-15 0-21l84-83c8-8 12-8 20 0l211 210c0 0 0 0 0 0 26 27 41 62 41 100 0 79-64 143-143 143-49 0-93-24-119-64-26 40-70 64-119 64-79 0-143-64-143-143 0-38 15-73 41-100 0 0 0 0 0 0z m254 121h-61c-8 0-14-6-14-14v-47h-47c-8 0-14-6-14-14v-61c0-8 6-15 14-15h47v-46c0-8 6-15 14-15h61c8 0 15 7 15 15v46h46c8 0 15 7 15 15v61c0 8-7 14-15 14h-46v47c0 8-7 14-15 14z m47-90v-32h-47c-8 0-14-6-14-14v-47h-32v47c0 8-6 14-15 14h-46v32h46c9 0 15 6 15 15v46h32v-46c0-9 6-15 14-15z m262-273c-17 26-48 35-74 20l-188-109c-6 23-27 40-52 40h-90c-36 16-75 31-115 31-53 0-102-24-144-68-17-19-30-37-38-50l-29 29c-7 6-13 6-20 0l-32-31-16 16c-6 6-15 6-21 0l-88-88c-5-5-5-15 0-21l56-55c6-6 15-6 21 0s5 15 0 21l-45 45 67 67 259-259-67-68-169 169c-6 6-15 6-21 0s-6-15 0-20l179-180c3-2 7-4 11-4h0c4 0 7 2 10 4l88 88c6 6 6 15 0 21l-31 31 32 31c5 6 5 16 0 21l-29 29h83c9 0 15 7 15 15s-6 14-15 14h-113l-103 104c16 28 70 109 160 109 37 0 73-15 107-29 2-1 4-1 5-1h93c30 0 37-48 0-49h-178c-8 0-14-7-14-15s6-15 14-15h178c22 0 41 13 49 33l206 118c22 13 53-20 23-43l-248-194c-15-11-33-18-51-18h-63c-9 0-15-6-15-14s6-15 15-15h63c25 0 49 9 69 24l247 193c25 19 33 48 19 73z m-570-350l-191 191 21 21 191-191z" horiz-adv-x="1000" />

<glyph glyph-name="017-medical-book" unicode="&#xe810;" d="M863 580c8 0 15 6 15 14v241c0 8-7 15-15 15h-636c-58 0-106-47-106-106v-391c0-8 7-15 15-15s15 7 15 15v391c0 43 34 77 76 77h14v-759h-15c-29 0-56-12-75-32v259c0 8-7 15-15 15s-15-7-15-15v-320c0-82 48-118 105-118h637c8 0 15 6 15 14v61c0 8-7 15-15 15h-46v31h46c8 0 15 7 15 15v543c0 8-7 15-15 15s-14-7-14-15v-468h-577v759h577v-227c0-8 6-14 14-14z m-14-547v-31h-245c-8 0-14-7-14-15s6-15 14-15h184v-31h-561c-9 0-16 7-16 15v1c0 8 7 15 16 15h314c8 0 14 7 14 15s-6 15-14 15h-314c-25 0-45-21-45-45v-1c0-25 20-45 45-45h622v-31h-623c-47 0-79 43-75 87 5 37 37 66 75 66z m-199 574h-46v46c0 8-6 15-14 15h-61c-8 0-15-7-15-15v-46h-46c-8 0-14-6-14-14v-61c0-8 6-15 14-15h46v-46c0-8 7-14 15-14h61c8 0 14 6 14 14v46h46c9 0 15 7 15 15v61c0 8-6 14-15 14z m-14-60h-46c-8 0-15-7-15-15v-46h-31v46c0 8-7 15-15 15h-46v31h46c8 0 15 7 15 15v46h31v-46c0-8 7-15 15-15h46v-31z m-77 182c-91 0-166-75-166-167s75-166 166-166c92 0 167 75 167 166 0 92-75 167-167 167z m0-304c-75 0-137 62-137 137 0 76 62 137 137 137 76 0 137-61 137-137 0-75-61-137-137-137z m167-75c0 8-7 15-15 15h-303c-8 0-15-7-15-15v-62c0-9 7-15 15-15h303c8 0 15 6 15 15z m-30-48h-274v33h274z m30-73c0 8-7 14-15 14h-303c-8 0-15-6-15-14s7-15 15-15h303c8 0 15 7 15 15z m-258-44c-8 0-14-7-14-15s6-15 14-15h182c9 0 15 7 15 15s-6 15-15 15z" horiz-adv-x="1000" />

<glyph glyph-name="018-heart-rate" unicode="&#xe811;" d="M956 152h-17v512c0 19-15 34-34 34h-123c-8 0-15-6-15-14s7-15 15-15h123c3 0 5-2 5-5v-512h-31v471c0 8-7 15-15 15h-728c-8 0-15-7-15-15v-319c0-8 7-14 15-14s15 6 15 14v304h698v-456h-698v89c0 8-7 14-15 14s-15-6-15-14v-89h-31v512c0 3 2 5 5 5h623c8 0 15 7 15 15s-7 14-15 14h-623c-19 0-34-15-34-34v-512h-17c-24 0-44-19-44-44v-62c0-25 20-44 44-44h424c8 0 15 6 15 14s-7 15-15 15h-424c-8 0-15 7-15 15v62c0 8 7 15 15 15h320v-46c0-8 7-15 15-15h242c8 0 15 7 15 15v46h320c8 0 15-7 15-15v-62c0-8-7-15-15-15h-424c-8 0-15-7-15-15s7-14 15-14h424c24 0 44 19 44 44v62c0 25-20 44-44 44z m-349-60h-214v31h214z m-425 289c0-8 7-14 15-14h113c0 0 0-1 0-1l180-179c7-6 13-6 20 0l179 179h114c8 0 15 6 15 14s-7 15-15 15h-91c10 18 15 39 15 60 0 69-56 125-125 125-41 0-79-20-102-53-23 33-61 53-102 53-69 0-125-56-125-125 0-21 5-41 15-59h-91c-8 0-15-7-15-15z m318-163l-149 149h58c6 0 12 4 14 10l17 52 46-116c5-13 22-13 27-1l47 102 18-39c2-6 7-9 13-9h57z m-198 237c0 53 43 96 96 96 39 0 72-24 88-60 8-17 21-15 28 0 16 35 49 60 88 60 53 0 96-43 96-96 0-22-8-43-21-60h-76l-27 61c-6 13-19 14-27 0l-46-101-48 122c-7 15-23 13-28-1l-26-80h-76c-13 17-21 37-21 59z" horiz-adv-x="1000" />

<glyph glyph-name="019-blood-bag" unicode="&#xe812;" d="M743 789h-85l-57 57c-2 3-6 4-10 4h-182c-4 0-8-1-10-4l-57-57h-85c-8 0-14-6-14-14v-543c0-8 6-14 14-14s15 6 15 14v528h76c4 0 8 2 11 4l56 57h170l56-57c3-2 7-4 11-4h76v-75c0-8 7-14 15-14s14 6 14 14v90c0 8-6 14-14 14z m-182-90c25 0 45 21 45 45s-20 45-45 45h-122c-24 0-45-20-45-45 0-24 21-45 45-45z m-137 45c0 9 7 16 15 16h122c8 0 15-7 15-16 0-8-7-15-15-15h-122c-8 0-15 7-15 15z m319-108c-8 0-15-6-15-15v-559h-46c-4 0-8-2-10-5l-36-35v71h46c8 0 15 6 15 14v546c0 8-7 15-15 15h-364c-8 0-15-7-15-15v-546c0-8 7-14 15-14l46 0v-71l-36 35c-2 3-6 5-10 5h-46v107c0 8-7 14-15 14s-14-6-14-14v-122c0-8 6-15 14-15h55l52-52v-40c-8-1-15-6-15-15v-60c0-8 6-15 15-15h91c8 0 14 7 14 15v60c0 9-7 14-15 15v31h92v-31c-8-1-15-6-15-15v-60c0-8 6-15 15-15h91c8 0 14 7 14 15v60c0 9-7 14-15 15v40l52 52h55c8 0 14 7 14 15v574c0 9-6 15-14 15z m-76 3v-62h-195c-9 0-15-6-15-14s6-15 15-15h195v-335h-334v335h75c8 0 14 6 14 15s-6 14-14 14h-75v62z m-227-760h-62v32h1 60 1v-32z m14 122v92h92v-92z m168-122h-62v32h1 60 1v-32z m-47 61v167c0 8-6 15-14 15h-122c-8 0-14-7-14-15v-167h-32v167c0 8-6 15-14 15l-46 0v62h334v-62h-46c-8 0-14-7-14-15l0-167z m-211 380c0-8 7-15 15-15h242c8 0 15 7 15 15s-7 15-15 15h-242c-8 0-15-7-15-15z m257-46h-242c-8 0-15-7-15-15s7-14 15-14h242c8 0 15 6 15 14s-7 15-15 15z m-181 91c33 0 60 27 60 60 0 30-41 77-49 87-3 3-7 5-11 5s-9-2-11-5c-9-10-50-57-50-87 0-33 27-60 61-60z m0 114c16-20 31-44 31-54 0-17-14-31-31-31s-31 14-31 31c0 10 14 34 31 54z m106-113c8 0 14 6 14 15v46h32v-46c0-9 6-15 14-15s15 6 15 15v91c0 24-20 45-45 45s-45-21-45-45v-91c0-9 6-15 15-15z m30 121c9 0 16-7 16-15v-16h-32v16c0 8 7 15 16 15z" horiz-adv-x="1000" />

<glyph glyph-name="020-cardiogram" unicode="&#xe813;" d="M182 16c0-25 20-45 45-45s45 20 45 45-20 45-45 45-45-20-45-45z m61 0c0-8-7-15-16-15s-16 7-16 15 7 16 16 16 16-7 16-16z m60 0c0-25 21-45 45-45s45 20 45 45-20 45-45 45-45-20-45-45z m61 0c0-8-7-15-16-15s-15 7-15 15 7 16 15 16 16-7 16-16z m502 834h-732c-40 0-73-33-73-73v-420c0-8 6-14 14-14s15 6 15 14v420c0 24 20 44 44 44h732c24 0 44-20 44-44v-655h-378c-8 0-15-7-15-15s7-14 15-14h378v-109c0-25-20-44-44-44h-732c-24 0-44 19-44 44v109h378c8 0 15 6 15 14s-7 15-15 15h-378v172c0 8-7 14-15 14s-14-6-14-14v-310c0-41 33-74 73-74h48v-45c0-8 7-15 15-15h60c8 0 15 7 15 15v45h456v-45c0-8 7-15 15-15h60c8 0 15 7 15 15v45h48c41 0 73 33 73 74v793c0 40-32 73-73 73z m-623-971h-32v31h32z m546 0h-32v31h32z m-109 910h-544c-8 0-15-6-15-14v-607c0-8 7-15 15-15h728c8 0 15 7 15 15v607c0 8-7 14-15 14h-120c-8 0-14-6-14-14s6-15 14-15h105v-577h-698v577h529c9 0 15 7 15 15s-6 14-15 14z m-498-74v-486c0-8 7-15 15-15h606c8 0 15 7 15 15v486c0 8-7 15-15 15h-606c-8 0-15-7-15-15z m29-15h578v-457h-578z m532-215h-31c10 18 15 39 15 60 0 69-56 125-125 125-41 0-79-20-102-53-23 33-61 53-102 53-69 0-125-56-125-125 0-21 5-41 15-59h-31c-8 0-14-7-14-15s6-14 14-14h53c0 0 0-1 0-1l180-179c7-6 13-6 20 0l179 179h54c8 0 14 6 14 14s-6 15-14 15z m-243-177l-149 149h58c6 0 12 4 14 10l17 52 46-116c5-13 22-13 27-1l47 102 18-39c2-6 7-9 13-9h57z m177 177h-76l-27 61c-9 11-18 11-27 0l-46-101-48 122c-9 12-19 12-28-1l-26-80h-76c-13 17-21 37-21 59 0 53 43 96 96 96 39 0 74-24 88-60 10-12 19-12 28 0 14 36 49 60 88 60 53 0 96-43 96-96 0-22-8-43-21-60z m-147-514c0 0 1 0 1 0h242c0 0 0 0 0 0 25 0 45 20 45 45 0 25-20 45-45 45 0 0 0 0 0 0h-243c0 0 0 0 0 0-24 0-45-20-45-45 0-25 21-45 45-45z m243 61c9 0 16-7 16-16 0-8-7-15-16-15 0 0 0 0 0 0h0c-9 0-16 7-16 15 0 9 7 16 16 16z m-42 0c-4-10-4-21 0-31h-158c3 10 3 21 0 31z m-201 0c9 0 16-7 16-16 0-8-7-15-15-15h-1c0 0 0 0 0 0-8 0-15 7-15 15 0 9 7 16 15 16z" horiz-adv-x="1000" />

<glyph glyph-name="021-crutches" unicode="&#xe814;" d="M996-40l-43 42c-5 6-14 6-20 0l-11-11-193 193 32 32c6 6 6 15 0 21l-33 32 11 11c6 6 6 15 0 21s-15 5-21 0l-10-11-18 18 244 243c43-23 90 35 53 72l-214 214c-37 36-95-10-72-53l-92-93c-6-5-6-15 0-20s15-6 21 0l91 91 21-22-200-200-21 22 64 64c5 5 5 15 0 20s-15 6-21 0l-64-64-201 202c23 43-35 89-72 53l-83-83c-6-6-6-15 0-21s15-6 21 0l83 83c12 13 38-7 21-23l-212-212c-15-15-38 7-23 21l86 86c5 6 5 15 0 21s-15 6-21 0l-86-86c-37-37 10-95 53-72l244-243-18-18-10 11c-6 5-15 5-21 0s-6-15 0-21l11-11-33-32c-5-6-5-15 0-21l32-32-193-193-11 11c-5 6-15 6-20 0l-43-42c-5-6-5-15 0-21l85-85c7-5 14-5 21 0l42 43c6 5 6 14 0 20l-11 11 193 193 32-32c7-5 14-5 21 0l32 33 11-11c7-6 14-6 21 0 6 6 6 15 0 21l-11 10 60 60 60-60-11-10c-5-6-5-15 0-21 7-6 14-6 21 0l11 11 32-33c7-5 14-5 21 0l32 32 66-66c5-5 15-5 20 0s6 15 0 21l-194 194 22 22 321-322-21-21-83 82c-5 6-15 6-20 0s-6-15 0-21l82-82-11-11c-6-6-6-15 0-20l42-43c7-5 14-5 21 0l85 85c5 6 5 15 0 21z m-897-75l-64 64 22 22 64-64z m609 320l-118 118c0 0 0 0-1 1l-1 1c-2 2-4 6-4 10v73c0 3-2 7-4 10l-322 322 21 22 331-331c3-3 5-7 5-11v-72c0-4 1-8 4-11l111-110z m-193 90h-66l-13 13c6 8 9 17 9 27v67l55 54 55-54v-67c0-7 2-15 5-21l-24-24c-6 3-14 5-21 5z m-278 424l108-107-107-107-107 108z m150-150l-106-106-22 22 106 106z m21-21l29-29-68-67c-8-9-13-20-13-32v-32l-54 54z m-23-128c0 4 2 8 5 11l68 68 21-22-59-59c-2-3-4-7-4-10v-73c0-2 0-4-1-6l-30 29z m263-70l242 242 22-21-243-243z m-13 241l106-106-22-22-106 106z m117 225l214-214c15-15-6-37-23-21l-212 212c-18 17 5 39 21 23z m117-203l-107-108-106 107 107 107z m-277-65l106-106-54-54v32c0 12-5 23-13 32l-68 67z m-322-321l61 60 21-22-60-60z m103 18l22-22-275-274-21 21z m4-125l-22 22 65 65c4 0 7-1 10-1h33z m247 0l-111 111c-3 3-7 4-11 4h-72c-4 0-8 2-11 5l-35 36c0 0 0 0-1 0 0 0 0 0 0 0 0 0 0 0 0 0 0 0 0 0 0 0l-42 42c0 0 0 0 0 0s0 0 0 0l-253 253 22 21 322-322c3-2 7-4 10-4h73c7 0 9-3 12-6l118-118z m277-235l-22 22 64 64 22-22z" horiz-adv-x="1000" />

<glyph glyph-name="022-medical-record" unicode="&#xe815;" d="M741 548c8 0 15 7 15 15v121c0 9-7 15-15 15h-46v77c0 8-6 14-15 14h-241c-8 0-15-6-15-14s7-15 15-15h227v-820h-515v127c0 8-7 15-15 15 0 0-1 0-1 0 0 0 0 0-1 0-8 0-14-7-14-15v-127h-76c-8 0-15 6-15 14v791c0 8 7 15 15 15h76v-629c0-8 6-15 14-15 1 0 1 0 1 0 0 0 1 0 1 0 8 0 15 7 15 15v629h224c8 0 15 6 15 15s-7 14-15 14h-331c-24 0-44-20-44-44v-791c0-24 20-44 44-44h636c9 0 15 7 15 15v76h46c8 0 15 7 15 15v121c0 9-7 15-15 15h-46v35h46c8 0 15 6 15 15v121c0 8-7 15-15 15h-46v27h46c8 0 15 7 15 15v121c0 9-7 15-15 15h-46v31h46z m-46 122h31v-92h-31z m0-546h31v-92h-31z m0 185h31v-92h-31z m0 179h31v-92h-31z m-197 60h-46v46c0 8-6 15-14 15h-61c-8 0-15-7-15-15v-46h-46c-8 0-14-7-14-15v-60c0-8 6-15 14-15h46v-46c0-8 7-15 15-15h61c8 0 14 7 14 15v46h46c8 0 15 7 15 15v60c0 8-7 15-15 15z m-14-61h-46c-8 0-15-6-15-14v-46h-31v46c0 8-7 14-15 14h-46v32h46c8 0 15 6 15 14v46h31v-46c0-8 7-14 15-14h46z m-77 182c-91 0-166-74-166-166s75-166 166-166 167 74 167 166-75 166-167 166z m0-303c-75 0-137 61-137 137s62 137 137 137 137-61 137-137-61-137-137-137z m167-75c0 8-7 15-15 15h-304c-8 0-15-7-15-15v-61c0-9 7-15 15-15h304c8 0 15 6 15 15z m-30-47h-274v33h274z m-46-90c8 0 15 7 15 15s-7 15-15 15h-182c-8 0-14-7-14-15s6-15 14-15z m-182-92c-8 0-14-6-14-14s6-15 14-15h182c9 0 15 6 15 15s-6 14-15 14z m258 46c0 8-7 15-15 15h-302c-9 0-15-7-15-15s6-14 15-14h302c8 0 15 6 15 14z m410 500h-46v46c0 8-7 15-15 15h0v46c0 8-7 15-15 15h-60c-8 0-15-7-15-15v-46h0c-9 0-15-7-15-15l0-576c0-8 6-15 15-15h0v-45c0-4 1-7 4-10l26-28v-38c0-9 7-15 15-15s15 6 15 15v38l26 28c2 3 4 6 4 10v45h0c8 0 15 7 15 15v75c0 8-7 14-15 14s-14-6-14-14v-60h-62v183h62v-59c0-9 6-15 14-15s15 6 15 15v362h31v-167c0-9 7-15 15-15s14 6 14 15v182c0 8-6 14-14 14z m-90-584l-16-16-16 16v39h32v-39z m-47 616h1 60 1v-32h-62v32z m15 60h31v-31h-31z m47-395h-62v274h62z" horiz-adv-x="1000" />

<glyph glyph-name="023-thermometer" unicode="&#xe816;" d="M195-2l-71-60-36 36 160 188c0 0 0 0 0 0 8 10 14 22 16 36l17 116c1 10 6 19 12 25l469 469c22 19 43 19 63 0l44-44c6-6 15-6 20 0 6 6 6 15 0 21l-43 44c-29 28-76 28-105 0l-468-469c-11-11-19-26-21-41l-17-117c-1-8-5-15-10-22l-214-250c0 0 0-1 0-1-16-19-14-47 3-65 19-18 48-18 65-3l135 115c6 5 7 14 1 21-5 6-14 7-20 1z m-134-114c-9-6-20-5-26 1-7 7-8 18-1 26l35 41 33-33z m917 812l-43 44c-6 5-15 5-21 0-6-6-6-15 0-21l44-44c17-21 17-42 0-63l-469-468c-7-7-15-12-25-13l-116-17c-14-2-26-7-36-16-1 0-1 0-1 0l-68-58c-6-6-7-15-1-21 6-6 13-7 20-2l68 58c6 6 14 9 22 10l116 17c16 2 31 10 42 21l468 469c29 28 29 75 0 104z m-410-148c0 0 0 0 0 0-6 6-15 6-21 0l-231-231c-2-2-3-5-4-8l-17-116c-5-33 23-51 48-48l116 17c3 1 6 2 8 5l446 446c17 20 17 41 0 62l-88 88c-9 9-20 13-31 13s-23-4-32-13l-170-170c-5-5-5-15 0-20 0 0 0 0 0-1 0 0 0 0 0 0 6-5 15-5 21 0l34 35c70 69 180-39 110-109l-131-131c-70-70-180 39-110 109l52 51c6 6 6 15 0 21 0 0 0 0 0 0z m-83-322l-109 110 23 22 109-109z m-35-35l-111-17c-6 0-10 2-11 4s-5 5-4 11l17 111 14 15 110-109z m354 552l88-89c6-7 6-14 0-21l-12-12-109 109 12 13c6 5 16 5 21 0z m-27-117c-21 20-49 33-78 32l51 52 109-110-51-51c1 28-9 56-31 77z m-281-279c21-21 48-33 78-32l-45-45-110 109 46 45c-1-28 9-56 31-77z m108 172l-86-87c-6-7-6-14 0-21l43-43c7-6 14-6 21 0l87 87c5 5 5 15 0 20l-44 44c-3 2-12 7-21 0z m-32-120l-23 23 66 66 22-23z m162 121c18 17 17 46 0 64-18 17-47 17-64 0-18-18-19-47 0-64 18-17 45-17 64 0z m-44 43c8 6 15 6 23 0 6-6 6-16 0-23-8-6-15-6-23 0-6 7-6 17 0 23z" horiz-adv-x="1000" />

<glyph glyph-name="024-medical-app" unicode="&#xe817;" d="M502 32h181c24 0 44 20 44 44v548c0 25-20 44-44 44h-60c-8 0-15-6-15-14s7-15 15-15h60c8 0 15-7 15-15v-548c0-8-7-15-15-15h-181c-8 0-15-6-15-14s7-15 15-15z m57 636h-303c-24 0-44-19-44-44v-548c0-24 20-44 44-44h182c8 0 14 7 14 15s-6 14-14 14h-182c-8 0-14 7-14 15v548c0 8 6 15 14 15h303c8 0 15 7 15 15s-7 14-15 14z m-226-423c-8 0-14-7-14-15v-63c0-8 6-14 14-14h63c8 0 14 6 14 14v63c0 8-6 15-14 15z m48-63h-33v33h33z m89-28h140c8 0 15 6 15 14s-7 15-15 15h-140c-8 0-15-7-15-15s7-14 15-14z m0 60h140c8 0 15 7 15 15s-7 15-15 15h-140c-8 0-15-7-15-15s7-15 15-15z m67 333c-27 0-51-12-67-31-17 19-41 31-68 31-48 0-87-39-87-87 0-23 9-45 25-61l119-120c7-5 14-5 21 0l119 120c17 16 26 38 26 61 0 48-40 87-88 87z m42-128s0 0 0 0l-109-109-109 109c-11 11-17 26-17 41 0 32 26 58 58 58 24 0 45-14 54-36 2-6 8-10 14-10s11 4 13 10c9 22 30 36 54 36 32 0 58-26 58-58 0-15-6-30-16-41z m255 6h-46v230c0 37-27 67-61 73v17c0 22-15 40-35 44l-27 53c-3 5-8 8-13 8h-364c-6 0-11-3-13-8l-27-53c-20-4-36-22-36-44v-17c-34-6-60-36-60-73v-394c0-8 6-15 14-15s15 7 15 15v394c0 25 20 44 44 44h489c25 0 44-19 44-44v-610c0-25-19-44-44-44h-489c-24 0-44 19-44 44v152c0 8-7 14-15 14s-14-6-14-14v-152c0-36 26-67 60-73v-17c0-22 16-40 36-44l27-53c2-5 7-8 13-8h364c5 0 10 3 13 8l27 53c20 4 35 22 35 44v17c34 6 61 37 61 73v230h46c8 0 14 6 14 14v122c0 8-6 14-14 14z m-176 364h-58l-16 32h59z m-106 32l15-32h-195l16 32z m-255 0h58l-16-32h-58z m-55-76c0 9 6 15 14 15h1c0 0 0 0 0 0h425c0 0 0 0 0 0h1c8 0 15-6 15-15v-16h-456z m39-834h58l16-32h-58z m107-32l-16 32h195l-15-32z m255 0h-59l16 32h58z m55 76c0-9-7-15-15-15h-1c0 0 0 0 0 0h-425c0 0 0 0 0 0h-1c-8 0-14 6-14 15v16h456v-16z m121 349h-31v92h31z" horiz-adv-x="1000" />

<glyph glyph-name="025-tablet" unicode="&#xe818;" d="M317 789c-8 0-14-6-14-14v-61c0-8 6-15 14-15s15 7 15 15v61c0 8-7 14-15 14z m-61 0c-8 0-14-6-14-14v-61c0-8 6-15 14-15s15 7 15 15v61c0 8-6 14-15 14z m122 0c-8 0-15-6-15-14v-61c0-8 7-15 15-15s14 7 14 15v61c0 8-6 14-14 14z m60 0c-8 0-14-6-14-14v-61c0-8 6-15 14-15s15 7 15 15v61c0 8-6 14-15 14z m61 0c-8 0-14-6-14-14v-61c0-8 6-15 14-15s15 7 15 15v61c0 8-7 14-15 14z m61 0c-8 0-15-6-15-14v-61c0-8 7-15 15-15s14 7 14 15v61c0 8-6 14-14 14z m60 0c-8 0-14-6-14-14v-61c0-8 6-15 14-15s15 7 15 15v61c0 8-6 14-15 14z m-232-589c-11-17-16-37-16-59v-18c0-8 6-15 14-15h88c65 0 118 53 118 118v18c0 8-7 15-15 15h-75c-12 53-59 91-115 91h-87c-8 0-15-7-15-15v-18c0-59 45-109 103-117z m102 30h0 73c-1-49-38-92-89-92h-38l49 30c6 5 8 14 4 21-4 7-13 9-20 4l-68-43c5 45 43 80 89 80h0z m-176 91h73c40 0 74-26 85-63-5-1-11-2-17-4l-47 30c-7 5-16 3-20-4s-2-16 4-21l32-20c-5-3-9-6-13-10h-8c-51 0-87 43-89 92z m490-320h-16c22 21 37 50 37 84 0 46-28 86-69 104v283c0 23-10 45-29 59l-92 69v39h17c24 0 44 19 44 44v123c0 24-20 44-44 44h-427c-24 0-44-20-44-44v-123c0-25 20-44 44-44h17v-39l-92-69c-19-14-29-36-29-59v-549c0-40 32-73 73-73l610 0c42 0 76 34 76 75s-34 76-76 76z m-10 98h-165c7 40 41 70 83 70s75-30 82-70z m-128 326h-455v39l71 53 313 0 71-53z m-441 243c-8 0-15 7-15 15v123c0 8 7 15 15 15h427c8 0 15-7 15-15v-123c0-8-7-15-15-15z m-75-745v549c0 14 6 27 17 36l94 70 206 0c8 0 15 7 15 15 0 0 0 0 0 0s0 0 0 0c0 8-7 14-15 14h-196v32h335v-32h-75c-8 0-15-6-15-14v0s0 0 0 0c0-8 7-15 15-15l85 0 94-70c11-9 17-22 17-36v-275c-10 1-21 1-31 0v274c0 5-2 9-6 12l-81 61c-2 2-6 3-9 3 0 0 0 0 0 0l-323 0c-3 0-7-2-9-3l-81-61c-4-3-6-7-6-12l0-196c0-8 7-15 15-15 0 0 0 0 0 0s0 0 0 0c8 0 15 7 15 15v121h455v-208c-48-20-76-76-65-127h-390v150c0 8-7 15-15 15 0 0 0 0 0 0s0 0 0 0c-8 0-15-7-15-15l0-286c0-8 7-14 15-14h172c8 0 15 6 15 14s-7 15-15 15h-157v92h400c6-12 15-22 24-31h-13c-36 0-67-26-74-61h-116c-8 0-14-7-14-15s6-14 14-14h116c3-12 8-23 15-32l-369 0c-24 0-44 20-44 44z m549-44h-77c-25 0-46 21-46 46 0 0 0 0 0 0 0 0 0 0 0 0 0 26 21 46 46 46h77v-92z m8 122c-39 2-71 31-78 69h165c-7-38-39-67-78-69z m97-122h-76v92h76c26 0 46-20 46-46s-20-46-46-46z" horiz-adv-x="1000" />

<glyph glyph-name="026-antiseptic" unicode="&#xe819;" d="M704 490l-85 170c-2 5-7 8-13 8h-16v46c0 8-6 15-14 15h-16v106c0 8-6 15-14 15h-122c-8 0-14-7-14-15v-106h-16c-8 0-15-7-15-15v-46h-15c-6 0-11-3-14-8l-26-53c-4-7-1-16 7-20 7-3 16 0 19 7l23 45h224l81-162c3-6 5-13 5-19v-87c0-8 6-14 14-14s15 6 15 14v87c0 11-3 22-8 32z m-265 331h92v-32h-46c-8 0-15-6-15-14s7-15 15-15h46v-31h-92z m-31-122h153v-31h-153z m289-377c-8 0-14-6-14-14v-385c0-24-20-44-44-44h-308c-24 0-44 20-44 44v535c0 6 2 13 5 19l30 60c3 7 0 16-7 19-7 4-16 1-20-6l-29-60c-5-10-8-21-8-32v-535c0-40 33-73 73-73h308c40 0 73 33 73 73v385c0 8-7 14-15 14z m-377 156c0 0 0 0 0 0-1-2-1-4-1-7v-546c0-8 6-14 14-14h304c8 0 14 6 14 14l0 546c0 1 0 2 0 2 0 0 0 0 0 0 0 3-1 5-2 7l-74 120c-3 4-8 7-13 7h-154c-6 0-10-3-13-7l-74-121c0 0-1 0-1-1z m28-217c1 75 62 135 137 135 75 0 137-61 137-137 0-76-62-137-137-137-76 0-138 64-137 139z m274 92c-30 44-80 72-137 72-57 0-107-28-137-72v104h274z m-274-413v92h105c8 0 15 7 15 15s-7 14-15 14h-105v104c30-44 80-72 137-72 57 0 107 28 137 72v-104h-105c-8 0-15-6-15-14s7-15 15-15h105v-92z m68 638h138l56-92h-251z m24-364v-46c0-8 6-15 14-15h61c8 0 15 7 15 15v46h46c8 0 14 7 14 15v60c0 8-6 15-14 15h-46v46c0 8-7 15-15 15h-61c-8 0-14-7-14-15v-46h-46c-8 0-15-7-15-15v-60c0-8 7-15 15-15z m-32 61h46c9 0 15 6 15 14v46h32v-46c0-8 6-14 14-14h46v-32h-46c-8 0-14-6-14-14v-46h-32v46c0 8-6 14-15 14h-46z m198 485c-8 0-14 7-14 15 0 8 6 14 14 14 8 0 15-6 15-14 0-8-7-15-15-15z m61 0c-8 0-15 7-15 15 0 8 7 14 15 14 8 0 14-6 14-14 0-8-6-15-14-15z m61 0c-9 0-15 7-15 15 0 8 6 14 15 14 8 0 14-6 14-14 0-8-6-15-14-15z m-61 61c-8 0-15 6-15 14 0 8 7 15 15 15 8 0 14-7 14-15 0-8-6-14-14-14z m0-121c-8 0-15 6-15 14 0 8 7 15 15 15 8 0 14-7 14-15 0-8-6-14-14-14z" horiz-adv-x="1000" />

<glyph glyph-name="027-doctor" unicode="&#xe81a;" d="M451 539c0 8-6 15-14 15s-15-7-15-15v-19c0-8 7-15 15-15s14 7 14 15z m112 15c-8 0-15-7-15-15v-19c0-8 7-15 15-15s15 7 15 15v19c0 8-7 15-15 15z m-26-99c-8 0-15-6-15-15 0-12-10-22-22-22s-22 10-22 22c0 9-7 15-15 15s-14-6-14-15c0-28 23-51 51-51s51 23 51 51c0 9-6 15-14 15z m-37 205c8 0 14 7 14 15v24h25c8 0 15 7 15 15s-7 15-15 15h-25v24c0 8-6 15-14 15s-15-7-15-15v-24h-24c-9 0-15-7-15-15s6-15 15-15h24v-24c0-8 7-15 15-15z m281-443l-181 57v58c37 27 62 71 62 121v13h14c31 0 56 25 56 55v31c0 23-15 43-35 52v78c0 8-7 15-15 15s-15-7-15-15v-75h-334v143c0 12 4 23 12 32l27 26c8 8 19 13 31 13h194c12 0 23-5 31-13l27-26c8-9 12-20 12-32v-4c0-8 7-15 15-15s15 7 15 15v4c0 20-8 38-22 52l-26 27c-14 13-33 21-52 21h-194c-20 0-38-8-52-21l-26-27c-14-13-22-32-22-52v-147c-20-8-35-28-35-51v-31c0-30 25-55 56-55h14v-13c0-50 25-94 62-121v-58l-182-57c-40-13-66-50-66-92v-16c0-8 6-15 14-15s15 7 15 15v16c0 29 19 55 46 64l46 14v-83c-18-7-30-23-30-43 0-25 20-45 45-45s45 20 45 45c0 20-13 36-31 43v92l110 35 63-48-69-49c-4-3-6-8-6-12v-259h-98v77c0 8-6 14-14 14s-15-6-15-14v-77h-92v166c0 8-7 15-15 15s-14-7-14-15v-180c0-8 6-15 14-15h423c9 0 15 7 15 15s-6 14-15 14h-160v251l159 117 79-25v-41c-34-7-60-37-60-74v-60c0-8 6-15 14-15h31c8 0 14 7 14 15s-6 14-14 14h-16v46c0 26 21 46 46 46s46-20 46-46v-46h-14c-8 0-15-6-15-14s7-15 15-15h29c8 0 14 7 14 15v60c0 37-26 67-60 74v32l75-24c28-9 47-35 47-64v-246h-87v77c0 8-7 14-15 14s-14-6-14-14v-77h-50c-8 0-14-6-14-14s6-15 14-15h181c8 0 14 7 14 15v260c0 42-27 79-67 92z m-119 361h14c15 0 27-12 27-26v-31c0-14-12-26-27-26h-14z m-359-501c0-9-7-16-15-16s-16 7-16 16 7 16 16 16c8 0 15-7 15-16z m35 418h-14c-15 0-27 12-27 26v31c0 14 12 26 27 26h14z m233-225l-71-53-71 53v45c18-8 39-12 60-12h22c21 0 42 4 60 12z m-60 62h-22c-67 0-121 54-121 121l0 125h264v-125c0-67-54-121-121-121z" horiz-adv-x="1000" />

<glyph glyph-name="028-dna" unicode="&#xe81b;" d="M757 775v60c0 8-6 15-14 15h-61c-8 0-15-7-15-15v-46h-126c-9 0-15-7-15-15s6-14 15-14h126c-1-11-3-21-6-31h-322c-3 10-5 20-6 31h144c8 0 14 6 14 14s-6 15-14 15h-144v46c0 8-7 15-15 15h-61c-8 0-14-7-14-15v-60c0-88 44-166 112-213-60-41-101-106-110-178-3-22 26-26 29-4 9 69 49 130 109 166 12-7 25-12 38-16-69-31-118-100-118-180s49-149 118-180c-13-4-26-9-38-16-60 36-100 98-109 166-1 8-8 14-16 13-9-1-14-9-13-17 9-72 50-137 110-178-68-47-112-125-112-213v-60c0-8 6-15 14-15h61c8 0 15 7 15 15v46h334v-46c0-8 7-15 15-15h61c8 0 14 7 14 15v60c0 86-42 165-112 213 59 40 100 104 110 178 1 8-4 16-12 17-8 1-16-5-17-13-15-113-112-198-226-198-107 0-197-90-197-197v-46h-31v46c0 126 102 228 228 228 108 0 197 89 197 197s-89 197-197 197c-126 0-228 102-228 228v46h31v-46c0-107 90-197 197-197 114 0 211-85 226-198 1-8 9-14 17-13 8 1 13 9 12 17-10 74-51 138-110 178 70 48 112 127 112 213z m-386-743l258 0c8-10 15-20 20-31l-298 0c5 11 12 21 20 31z m129 61c36 0 70-12 97-32l-194 0c27 20 61 32 97 32z m161-122c3-10 5-20 6-31h-334c1 11 3 21 6 31z m-44 150c69-41 111-115 111-196v-46h-31v46c0 23-4 45-11 65 0 0 0 0 0 0-18 52-57 93-107 115 13 5 26 10 38 16z m-20 365l-194 0c27 20 61 31 97 31 36 0 70-11 97-31z m32-243h-258c-8 10-15 20-20 32l298 0c-5-12-12-22-20-32z m-290 61c-3 10-5 21-6 31h334c-1-10-3-21-6-31z m0 92l322 0c3-10 5-21 6-31h-334c1 10 3 21 6 31z m12 29c5 12 12 22 20 32l258 0c8-10 15-20 20-32z m52-211h194c-27-20-61-31-97-31s-70 11-97 31z m0 425h194c-27-20-61-32-97-32s-70 12-97 32z m246 60c-5-11-12-21-20-31h-258c-8 10-15 20-20 31z m-32-120c-12 6-25 12-38 16 71 31 118 103 118 180v46h31v-46c0-80-42-155-111-196z" horiz-adv-x="1000" />

<glyph glyph-name="029-medicine" unicode="&#xe81c;" d="M972 50h-76c-8 0-15-7-15-15s7-14 15-14h75v-32h-942v32h803c8 0 15 6 15 14s-7 15-15 15h-196v32c135 9 243 122 243 259v59 60c0 8-7 15-15 15h-139l43 120c19-6 43 5 52 23 11 22 2 49-20 60l-112 57c-22 11-49 3-61-20-9-19-4-42 13-55l-50-73c-4-7-2-16 4-21 7-4 16-2 21 4l51 76 75-39-47-132h-144l29 42c4 7 3 16-4 21-7 4-16 3-20-4l-41-59h-121v16c0 24-20 44-45 44-8 0-15 8-15 16 0 25-20 45-45 45s-45-20-45-45c0-8-7-16-16-16-25 0-45-20-45-44v-16h-46c-8 0-15-7-15-15v-60-59c0-137 108-250 243-259v-32h-336c-15 0-28-13-28-28v-34c0-15 13-28 28-28h944c19 0 27 12 28 28v34c0 15-13 28-28 28z m-318 652c4 8 13 11 21 7l112-57c8-4 11-13 7-21-4-8-14-11-21-7l-113 57c-7 4-10 14-6 21z m-261-621h214v-31h-214z m-182 410c0 8 7 15 16 15 25 0 45 20 45 45 0 9 7 16 16 16s15-7 15-16c0-25 21-45 45-45 9 0 16-7 16-15v-16h-153v16z m-60-150v44h135c8 0 15 6 15 15s-7 14-15 14h-135v32h698v-32h-499c-8 0-15-6-15-14s7-15 15-15h499v-44c0-127-103-230-229-230h-240c-126 0-229 103-229 230z m263-168h173c61 0 110 50 110 110v26c0 8-6 15-15 15h-86c-41 0-77-23-96-56-19 33-55 56-95 56h-87c-8 0-15-7-15-15v-26c0-60 50-110 111-110z m182 121h72v-11c0-44-37-81-81-81h-38l51 34c6 5 8 14 4 20-5 7-14 9-21 5l-68-46c-1 43 39 79 81 79z m-264 0h73c41 0 81-36 80-79l-68 46c-7 4-16 2-20-5-5-6-3-15 4-20l51-34h-38c-45 0-82 37-82 81v11z" horiz-adv-x="1000" />

<glyph glyph-name="030-hospital-bed" unicode="&#xe81d;" d="M1000 456c0 24-20 45-45 45s-45-21-45-45v-77h-161c-8 0-14-6-14-14s6-15 14-15h161v-75h-820v75h595c8 0 15 7 15 15s-7 14-15 14h-416c10 27-13 61-42 61h-121c-6 0-11-1-16-3v79c0 25-20 45-45 45s-45-20-45-45l0-316v0s0 0 0 0c0-42 34-76 75-76h46v-147c-9-10-15-24-15-40 0-33 27-60 60-60s61 27 61 60c0 16-6 30-16 40v82h270c9 0 15 7 15 15s-6 15-15 15h-330v35h698v-35h-304c-8 0-14-7-14-15s6-15 14-15h244v-82c-10-10-15-24-15-40 0-33 27-60 60-60 33 0 60 27 60 60 0 16-6 30-15 40v147h46c40 0 75 35 75 76z m-834-549c-17 0-30 13-30 30s13 31 30 31 31-14 31-31-14-30-31-30z m16 152v-63c-10 2-21 2-31 0v63z m667 0v-63c-10 2-21 2-31 0v63h31z m-15-152c-17 0-31 13-31 30s14 31 31 31 31-14 31-31-14-30-31-30z m121 564c9 0 16-7 16-15v-181h-32l0 181c0 8 7 15 16 15z m-849-60h121c9 0 16-7 16-16 0-8-6-15-14-16h-125c-8 1-14 8-14 16 0 9 7 16 16 16z m-77 105c0 9 7 16 16 16s16-7 16-16l0-241h-32z m896-362h-850c-20 0-37 13-43 31h194c8 0 14 7 14 15 0 0 0 0 0 0s0 0 0 0c0 8-6 14-14 14h-197v32h942v-32h-682c-8 0-14-6-14-14v0s0 0 0 0c0-8 6-15 14-15h679c-2-7-12-31-43-31z m-470 457v-46c0-8 7-14 15-14h60c8 0 15 6 15 14v46h46c8 0 15 7 15 15v61c0 8-7 14-15 14h-46v46c0 8-7 15-15 15h-60c-8 0-15-7-15-15v-46h-46c-8 0-15-6-15-14v-61c0-8 7-15 15-15h46z m-31 61h46c8 0 14 7 14 15v46h32v-46c0-8 6-15 14-15h46v-31h-46c-8 0-14-7-14-15v-46h-32v46c0 8-6 15-14 15h-46z m76-182c92 0 166 75 166 166s-74 167-166 167-166-75-166-167 74-166 166-166z m0 303c76 0 137-61 137-137s-61-137-137-137-137 62-137 137c0 76 61 137 137 137z" horiz-adv-x="1000" />

<glyph glyph-name="031-location" unicode="&#xe81e;" d="M774 850h-548c-24 0-44-20-44-44v-333c0-8 7-15 15-15s14 7 14 15v333c0 8 7 15 15 15h116l57-57c2-2 6-4 10-4h182c4 0 8 2 10 4l57 57h116c8 0 15-7 15-15v-912c0-8-7-15-15-15h-548c-8 0-15 7-15 15v515c0 8-6 15-14 15s-15-7-15-15v-515c0-24 20-44 44-44h548c24 0 44 20 44 44v912c0 24-20 44-44 44z m-189-61h-170l-31 32h232z m-130-257v-46h-46c-8 0-15-6-15-15v-60c0-8 7-15 15-15h46v-46c0-8 7-15 15-15h60c8 0 15 7 15 15v46h46c8 0 15 7 15 15v60c0 9-7 15-15 15h-46v46c0 8-7 15-15 15h-60c-8 0-15-7-15-15z m29-61v46h32v-46c0-8 6-14 14-14h46v-32h-46c-8 0-14-6-14-14v-46h-32v46c0 8-6 14-14 14h-46v32h46c8 0 14 6 14 14z m75 258h-302c-8 0-14-7-14-15v-728c0-8 6-15 14-15h211c8 0 15 7 15 15s-7 15-15 15h-196v698h287c8 0 15 7 15 15s-7 15-15 15z m198-743v728c0 8-6 15-14 15h-120c-8 0-15-7-15-15s7-15 15-15h105v-698h-196c-8 0-15-7-15-15s7-15 15-15h211c8 0 14 7 14 15z m-91 121c0 8-6 15-14 15h-304c-8 0-14-7-14-15s6-14 14-14h304c8 0 14 6 14 14z m-227-167c-8 0-14-7-14-15s6-14 14-14h122c8 0 14 6 14 14s-6 15-14 15z m-105 501c0-36 28-91 32-98 44-86 119-180 123-184 7-7 15-7 22 0 4 4 79 98 123 184 4 7 32 62 32 98 0 92-74 166-166 166s-166-74-166-166z m303 0c0-25-21-69-29-84 0 0 0 0 0 0-32-64-85-135-108-165-23 30-75 101-108 165 0 0 0 0 0 0-8 15-29 59-29 84 0 76 61 137 137 137s137-61 137-137z" horiz-adv-x="1000" />

<glyph glyph-name="032-medical-record" unicode="&#xe81f;" d="M511 786c6-6 6-16 0-22-6-6-16-6-22 0-6 6-6 16 0 22 6 6 16 6 22 0z m323-388c8 0 14 6 14 14v363c0 8-6 14-14 14h-260c-7 35-37 61-74 61-34 0-67-26-74-61h-260c-8 0-14-6-14-14v-910c0-8 6-15 14-15h668c8 0 14 7 14 15v483c0 9-6 15-14 15s-15-6-15-15v-469h-638v881h133v-31h-87c-8 0-15-7-15-15v-789c0-8 7-14 15-14h311c8 0 15 6 15 14s-7 15-15 15h-296v759h72v-15c0-8 7-15 15-15h53c9 0 15 7 15 15s-6 14-15 14h-39v62h96c8 0 15 7 15 15 3 28 18 43 46 46 25 0 46-21 46-46 0-8 7-15 15-15h96v-62h-211c-8 0-14-6-14-14s6-15 14-15h225c8 0 15 7 15 15v15h72v-759h-156c-8 0-15-7-15-15s7-14 15-14h171c8 0 15 6 15 14v789c0 8-7 15-15 15h-87v31h133v-348c0-8 7-14 15-14z m-531-230c0-8 7-14 15-14h364c8 0 15 6 15 14s-7 15-15 15h-364c-8 0-15-7-15-15z m394-60c0 8-7 14-15 14h-364c-8 0-15-6-15-14s7-15 15-15h364c8 0 15 7 15 15z m-254-47c-8 0-15-6-15-14s7-15 15-15h114c8 0 15 7 15 15s-7 14-15 14z m-68 304c9-4 15-12 16-22l12-94c1-20 17-35 37-35 17 0 33 13 36 30 0 1 0 1 0 1l13 107c1 6 5 10 11 10 5 0 10-4 11-10l11-104c2-19 19-34 38-34 20 0 36 15 38 35l11 94c2 9 8 18 16 22 20 10 33 31 33 53v97c0 51-41 92-91 92-15 0-30-3-43-11-19-12-27-12-40-2-15 10-34 14-51 13-50 0-91-41-91-92v-97c0-22 13-43 33-53z m-3 150c0 35 27 63 61 63 16-1 32-6 45-15 13-9 30-9 43-2 13 8 32 17 46 17 34 0 61-28 61-63v-97c0-11-6-22-16-26-17-9-29-26-32-46l-11-94c0 0 0 0 0 0 0-5-4-9-9-9-4 0-8 4-9 9l-11 103c-2 21-20 36-40 36-20 0-37-15-40-35l-13-107c-1-3-4-6-7-6-4 0-8 4-8 8 0 0 0 1 0 1l-12 94c-3 20-15 37-32 45l0 1c-10 4-16 15-16 26v97z" horiz-adv-x="1000" />

<glyph glyph-name="033-bandage" unicode="&#xe820;" d="M729 577c-13 13-34 14-55 2-43-24-68-67-94-107-1-3-3-2-3 1v115c0 8-6 15-15 15s-14-7-14-15v-118c0-3 1-7 2-10l-260-72v57c0 8-7 14-15 14s-14-6-14-14v-211c0-71 71-94 71-117v-252c0-8 7-15 15-15s15 7 15 15v96l88-27-60-59c-6-6-6-15 0-21 7-5 14-5 21 0l71 71 66-21v-39c0-8 6-15 14-15s15 7 15 15v252c1 27 9 34 23 45 20 17 45 38 52 115 6 72 32 152 71 220 28 49 13 72 6 80z m-226-161c-18-20-29-47-27-84 0-8 7-14 15-14h137c-3-17-5-34-7-52l-331 44v48z m-213-136l73-9-73-40c0 1 0 49 0 49z m7-79l115 63 204-27c-4-14-11-26-12-26l-122-37c-8-2-12-10-10-18 5-9 11-12 18-10l75 23c-9-11-17-26-17-51 0 0 0 0 0 0v-124l-186 62v51l67 20c8 3 12 11 10 19-2 7-11 12-18 9l-64-19c-16 27-46 32-60 65z m65-209v33l186-62v-28z m335 520c-29-52-51-109-64-164h-128c4 44 34 69 87 95 5 3 10 9 14 14 7 12 14 24 21 35 19 29 37 47 58 59 1 1 2 2 3 2 10 6 17 6 20 3 4-4 4-19-11-44z m-422-18c8 0 15 6 15 14v148c1 13 8 20 21 21 12 0 21-9 21-21 0 0 0 0 0 0v-180c0-8 7-14 15-14s15 6 15 14v180c0 0 0 0 0 0v108c1 13 8 20 21 21 12 0 21-10 21-21v0s0 0 0 0v-288c0-8 7-14 15-14s15 6 15 14v288c0 0 0 0 0 0s0 0 0 0v36c1 12 8 20 21 21 12 0 21-10 21-21v-72c0 0 0 0 0 0v-252c0-8 7-14 15-14s14 6 14 14v252c0 10 11 21 22 21 11 0 21-10 21-21v-76c0-8 6-15 14-15s15 7 15 15v76c0 28-23 50-50 50-8 0-15-1-22-4v26c0 27-22 50-50 50-27-2-44-16-50-41-30 15-73-10-73-45v-62c-30 14-71-11-71-46v-148c0-8 6-14 14-14z" horiz-adv-x="1000" />

<glyph glyph-name="034-lung" unicode="&#xe821;" d="M905 204c8 0 15 7 15 15v18c0 137-112 249-249 249h-71c-6 0-12-1-18-2-15 11-37 35-37 55v42c28 11 38 50 17 72 16 21 16 41 0 61 13 16 16 33 7 51 39 20 26 85-20 85h-16c-8 0-15-7-15-15s7-14 15-14h16c19 0 21-32 0-32h-98c-22 0-23 31 0 32h18c8 0 15 6 15 14s-7 15-15 15h-18c-47 0-60-65-20-85-9-18-6-35 7-51-16-20-16-40 0-61-21-22-11-61 17-72v-43c0-19-21-43-36-54-6 1-12 2-19 2h-71c-137 0-249-112-249-249v-213c0-8 7-14 15-14s15 6 15 14v213c0 121 98 220 219 220h62l-44-45c-15-15-17-39-6-56l-22-71-82 14c-4 1-7 0-10-1l-31 53c-4 7-13 9-20 5-7-4-10-13-6-20l27-45-37-9c-7-2-12-10-10-18 2-9 10-12 17-10l68 16 57-10-62-44-66-15c-8-2-13-10-11-17 3-10 10-13 18-11l38 9-55-113c-3-7 0-16 7-19 7-4 14-1 20 7l17 35 45-40c7-5 14-5 20 1 6 6 5 15-1 21l-51 45 36 74 34 24 11-45-12-53c-2-8 3-16 11-17 7-2 15 0 18 11l7 31 25-23c7-6 14-6 21 0 5 6 5 15-1 21l-41 38-13 55 31 21c2 2 4 5 5 8l23 73c16-4 31-1 45 12l33 33v-96c-43-38-61-95-60-151 0-34 2-84-38-124-42-43-121-65-236-65v14c0 9-7 15-15 15s-15-6-15-15v-37c0-40 33-73 73-73h72c137 0 249 112 249 249v312c15 12 37 12 53 0v-312c0-137 111-249 249-249h71c40 0 73 33 73 73v232c0 8-7 15-15 15s-14-7-14-15v-209c-115 0-195 22-237 65-39 40-38 90-38 124 1 56-17 113-60 151v97l34-34c14-13 29-16 45-12l22-73c1-3 3-6 6-8l30-21-13-55-41-38c-6-6-6-15-1-21 7-7 14-6 21 0l25 23 7-31c2-11 11-13 18-11 8 1 13 9 11 17l-12 53 11 45 34-24 36-74-51-45c-6-6-7-15-1-21 6-6 13-6 20-1l45 40 18-35c5-8 12-11 19-7 7 3 10 12 7 19l-55 113 38-9c8-2 16 1 18 11 2 8-3 15-11 17l-65 16-63 43 57 10 68-16c7-2 15 0 17 10 2 8-2 16-10 18l-54 13 24 41c4 7 2 16-5 20-7 4-16 2-20-5l-31-53-73-13-22 71c12 17 10 41-5 56 0 0 0 0 0 0l-45 45h62c121 0 220-99 220-220v-18c0-8 6-15 14-15z m-450 419c0 9 7 16 16 16h58c9 0 16-7 16-16s-7-16-16-16h-58c-9 0-16 7-16 16z m16 137h58c9 0 16-7 16-16s-7-15-16-15h-58c-9 0-16 7-16 15s7 16 16 16z m0-61h58c9 0 16-7 16-15s-7-16-16-16h-58c-9 0-16 7-16 16s7 15 16 15z m-246-820h-72c-21 0-40 16-43 37 123 1 209 26 257 75 48 48 47 108 46 144 0 4 0 8 0 11 0 45 16 77 31 97v-144c0-121-98-220-219-220z m362 267c0-3 0-7 0-11-1-36-2-96 46-144 48-49 134-74 257-75-3-21-21-37-43-37h-71c-122 0-220 99-220 220v144c15-20 31-53 31-97z m46 223c-8-6-15-6-22 0l-59 59c0 0 0 0 0 0 0 0 0 0 0 0-15 14-33 21-52 21-17 0-39-8-52-21l-58-59c-8-6-15-6-22 0-7 6-7 16 0 23l95 95c14 13 21 32 21 51v40h32v-39c0-20 8-38 21-52l30-30c0 0 0 0 1 0l65-65c6-7 6-17 0-23z" horiz-adv-x="1000" />

<glyph glyph-name="035-nurse" unicode="&#xe822;" d="M437 446c-8 0-15 6-15 14v19c0 8 7 15 15 15s14-7 14-15v-19c0-8-6-14-14-14z m126 0c-8 0-15 6-15 14v19c0 8 7 15 15 15s15-7 15-15v-19c0-8-7-14-15-14z m-63-117c-28 0-51 23-51 52 0 8 6 14 14 14s15-6 15-14c0-13 10-23 22-23s22 10 22 23c0 8 7 14 15 14s14-6 14-14c0-29-23-52-51-52z m334-325c8 0 14 7 14 15v46c0 42-27 79-67 92l-64 20v246c9 10 15 24 15 38v31c-1 20-9 35-16 41v102c0 36-21 69-52 85l32 80c2 9-1 15-9 19-124 41-250 41-374 0-8-4-11-10-9-19l20-48c-26-26-41-60-41-97 0 0 0-124 0-125-9-10-15-23-15-38v-31c0-14 6-28 15-38v-108c0-8 7-14 15-14s14 6 14 14v92c8-2 18-1 26-1v-13c0-50 25-94 62-121v-58l-88-28v65c0 9-6 15-14 15s-15-6-15-15v-74l-64-20c-40-13-67-50-67-92v-200c0-8 6-15 14-15h668c8 0 14 7 14 15v90c0 8-6 14-14 14s-15-6-15-14v-76h-82v125c0 9-7 15-15 15s-14-6-14-15v-125h-254v130l199 157 119-37c28-9 47-35 47-64v-46c0-8 7-15 15-15z m-234 210v58c37 27 62 71 62 121v13c8 0 18-1 25 1v-221z m-151-95l-70 57 33 11 64-49z m254 342c0-14-12-26-27-26h-14v83h14c15 0 27-12 27-26z m-391 194c0 25 9 48 24 67l29-74c2-6 8-9 14-9 26 1 54 1 89 1h0c8 0 14 6 14 14 0 8-6 15-14 15-31 0-56 0-80-1l-51 128c108 33 218 33 326 0l-52-128c-26 0-53 0-79 1 0 0 0 0 0 0-8 0-15-7-15-15 0-8 6-15 14-15 24 0 85 0 90 0 6 0 12 4 14 9l18 44c20-11 34-33 34-57v-88h-23c-36 0-69 22-82 56-7 11-15 12-25 4-31-38-77-60-126-60h-119v108z m12-220c-15 0-27 12-27 26v31c0 14 12 26 27 26h14v-83h-14z m44-42l0 125h63c51 0 98 20 134 54 16-24 40-42 67-50l0-129c0-67-54-121-121-121h-22c-67 0-121 54-121 121z m121-150h22c21 0 42 4 60 12v-45l-71-53-71 53v45c18-8 39-12 60-12z m-308-178c0 29 19 55 47 64l117 37 80-66-55-41c-4-3-6-8-6-12v-168h-72v125c0 9-6 15-14 15s-15-6-15-15v-125h-82v186z m439 112l-190-149c-3-3-5-7-5-12v-137h-32v161l195 147z m-40-176c-8 0-14-6-14-14s6-15 14-15h72c8 0 14 7 14 15s-6 14-14 14z m-95 716c0-8 7-14 15-14s14 6 14 14v16h16c8 0 15 6 15 15s-7 14-15 14h-16v16c0 8-6 14-14 14s-15-6-15-14v-16h-16c-8 0-14-6-14-14s6-15 14-15h16z" horiz-adv-x="1000" />

<glyph glyph-name="036-medical-record" unicode="&#xe823;" d="M910 736h-71v57c0 31-26 57-57 57 0 0 0 0 0 0h-221c-8 0-14-7-14-15s6-14 14-14h171c-5-9-8-18-8-28l0-429h-325l-56 57c-3 3-7 4-11 4h-167v368c0 15 13 28 28 28h305c8 0 14 6 14 14s-6 15-14 15h-305c-32 0-57-26-57-57v-368h-46c-8 0-15-6-15-15v-545c0-8 7-15 15-15h89c8 0 15 7 15 15s-7 14-15 14h-75v517h222l57-57c2-2 6-4 10-4h410v-110c0-9 7-15 15-15s14 6 14 15v125c0 8-6 14-14 14h-64v228h113c32 0 58 26 58 58v71c0 8-7 15-15 15z m-156-114v171c0 15 12 28 28 28s28-13 28-28v-143c0-10 3-20 7-28h-63z m142 28c0-16-13-28-29-28s-28 12-28 28v57h57v-57z m-685-11h121c8 0 15 6 15 14v121c0 9-7 15-15 15h-121c-8 0-15-6-15-15v-121c0-8 7-14 15-14z m15 121h92v-92h-92z m440 29h-273c-8 0-15-6-15-15s7-14 15-14h273c8 0 15 6 15 14s-7 15-15 15z m0-61h-273c-8 0-15-6-15-14s7-15 15-15h273c8 0 15 7 15 15s-7 14-15 14z m0-60h-273c-8 0-15-7-15-15s7-14 15-14h273c8 0 15 6 15 14s-7 15-15 15z m0-61h-455c-8 0-15-6-15-15s7-14 15-14h455c8 0 15 6 15 14s-7 15-15 15z m0-61h-455c-8 0-15-6-15-14s7-15 15-15h455c8 0 15 7 15 15s-7 14-15 14z m0-60h-455c-8 0-15-7-15-15s7-14 15-14h455c8 0 15 6 15 14s-7 15-15 15z m152-311c-8 0-15-6-15-14v-281h-560c-8 0-15-7-15-15s7-15 15-15h575c8 0 14 7 14 15v296c0 8-6 14-14 14z m-516 189h-152c-8 0-14-6-14-14s6-15 14-15h152c8 0 15 7 15 15s-7 14-15 14z m61-303h46v-46c0-8 6-14 14-14h61c8 0 15 6 15 14v46h46c8 0 14 7 14 15v61c0 8-6 14-14 14h-46v46c0 8-7 15-15 15h-61c-8 0-14-7-14-15v-46h-46c-8 0-15-6-15-14v-61c0-8 7-15 15-15z m14 61h46c8 0 15 7 15 15v46h31v-46c0-8 7-15 15-15h46v-31h-46c-8 0-15-7-15-15v-46h-31v46c0 8-7 15-15 15h-46z m77-182c91 0 166 75 166 166s-75 167-166 167-167-75-167-167 75-166 167-166z m0 303c75 0 137-61 137-137 0-75-62-137-137-137s-137 62-137 137c0 76 61 137 137 137z" horiz-adv-x="1000" />

<glyph glyph-name="037-syrup" unicode="&#xe824;" d="M364 775v-61c0-8 7-15 15-15s14 7 14 15v61c0 8-6 14-14 14s-15-6-15-14z m61 0v-61c0-8 6-15 14-15s15 7 15 15v61c0 8-7 14-15 14s-14-6-14-14z m60 0v-61c0-8 7-15 15-15s15 7 15 15v61c0 8-7 14-15 14s-15-6-15-14z m61 0v-61c0-8 7-15 15-15s14 7 14 15v61c0 8-6 14-14 14s-15-6-15-14z m61 0v-61c0-8 6-15 14-15s15 7 15 15v61c0 8-7 14-15 14s-14-6-14-14z m-16-471h-46v46c0 8-7 15-15 15h-60c-8 0-15-7-15-15v-46h-46c-8 0-15-6-15-14v-61c0-8 7-15 15-15h46v-46c0-8 7-14 15-14h60c8 0 15 6 15 14v46h46c8 0 15 7 15 15v61c0 8-7 14-15 14z m-15-60h-46c-8 0-14-7-14-15v-46h-32v46c0 8-6 15-14 15h-46v31h46c8 0 14 6 14 15v46h32v-46c0-9 6-15 14-15h46z m288-153h-107v70c19 14 31 35 31 60 0 19-15 52-31 81v200c0 4-1 8-4 10l-97 91c-3 3-7 4-10 4 0 0 0 0 0 0l-10 0v32h32c16 0 29 12 29 28v45c0 9-7 15-15 15s-15-6-15-15v-44h-334v153h334v-45c0-8 7-14 15-14s15 6 15 14v46c0 15-13 28-29 28h-336c-16 0-29-13-29-28v-155c0-16 13-28 29-28h32v-32l-10 0c-3 0-7-1-10-4l-97-91c-3-2-4-6-4-10v-203c0-8 6-15 14-15s15 7 15 15v196l88 83 280 0 88-83v-142c-9 14-22 14-31-1v119c0 4-2 8-5 11l-60 60c-3 3-7 5-11 5 0 0 0 0 0 0l-242 0c-4 0-8-2-11-5l-60-60c-3-3-5-7-5-11v-380h-31v144c0 8-6 14-15 14s-14-6-14-14v-144h-77c-24 0-45-20-45-45s21-45 45-45h77v-78c0-40 33-73 73-73h368c38 0 69 29 73 66 70 20 122 84 122 161 0 8-7 14-15 14z m-471 548h214v-32h-214z m319-317c22-37 46-84 46-101 0-25-20-46-46-46-25 0-46 21-46 46 0 13 41 91 46 101z m16-174v-57h-31v57c10-3 21-3 31 0z m-395 317l52 52 230 0 52-52v-40h-334z m0-69h334v-94c-15-29-30-62-30-81 0-25 12-46 30-60v-69h-334z m351-517h-368c-24 0-44 20-44 44v78h31v-76c0-8 7-14 15-14h120c8 0 14 6 14 14s-6 15-14 15h-105v61h231c13-25 31-46 53-61h-115c-8 0-15-7-15-15s7-14 15-14h180c2 0 4 0 6 1 13-2 25-2 38-1-5-18-22-32-42-32z m28 60c-54 0-103 33-125 83-3 5-8 9-14 9h-407c-8 0-15 7-15 15s7 16 15 16h683c-8-69-66-123-137-123z" horiz-adv-x="1000" />

<glyph glyph-name="038-medicine" unicode="&#xe825;" d="M484 471v122c0 25-20 45-45 45s-45-20-45-45v-122c-6-4-11-9-15-15h-153c-25 0-45-20-45-45s20-45 45-45h153c13-19 35-31 60-31 41 0 75 34 75 76 0 24-12 46-30 60z m-61 122c0 8 7 15 16 15s15-7 15-15v-109c-10 3-21 3-31 0z m-197-198c-8 0-16 7-16 16 0 8 8 16 16 16h139c-2-11-2-22 0-32h-139z m213-30c-26 0-46 20-46 46s20 46 46 46 46-21 46-46-21-46-46-46z m546-271c8 0 15 6 15 14v129c0 4-2 9-5 11l-61 53c-3 2-6 3-10 3 0 0 0 0 0 0l-16 0v31h16c8 0 15 7 15 15v122c0 8-7 14-15 14h-52c-18 99-68 189-144 256-80 70-183 108-289 108-111 0-217-41-298-116-81-75-131-176-140-285-1-17 27-25 29-3 18 210 198 375 409 375 197 0 367-143 403-335h-32c-13 62-40 120-81 168-5 6-15 7-21 2-6-5-7-15-2-21 10-12 19-24 28-37l-40-23c-7-4-9-13-5-20 4-8 12-9 20-5l39 23c15-28 25-57 32-87h-38c-8 0-15-6-15-14v-122c0-8 7-15 15-15h16v-31l-16 0c-4 0-7-1-10-4l-61-52c-3-2-5-7-5-11v-91c-13-11-26-21-40-30l-23 39c-4 7-13 10-20 6-7-4-9-13-5-20l23-40c-46-24-96-37-148-39v45c0 9-6 15-14 15s-15-6-15-15v-45c-53 2-103 16-147 39l23 40c4 7 1 16-6 20-7 4-16 1-20-6l-22-39c-44 27-81 64-108 108l39 22c7 4 10 13 6 20-4 7-13 10-20 6l-40-23c-23 44-37 94-39 147h45c8 0 15 7 15 15s-7 14-15 14h-45c2 53 16 103 39 148l40-23c7-4 16-3 20 5 3 7 1 16-6 20l-39 23c27 43 64 80 108 108l22-40c6-9 13-9 20-5 7 4 10 13 6 20l-23 39c44 24 94 38 147 40v-46c0-8 7-15 15-15s14 7 14 15v46c52-2 102-16 148-40l-23-39c-4-7-2-16 5-20 8-5 15-2 20 5l23 40c13-8 25-18 37-28 6-5 16-4 21 2 5 7 4 16-2 21-68 57-154 88-243 88-206 0-379-172-379-378 0-69 18-133 51-189 104-198 382-245 555-114v-38c-67-46-146-69-227-69-216 0-396 168-410 384-1 19-30 17-29-2 15-231 207-412 439-412 81 0 159 22 227 64v-112c0-40 33-73 73-73h188c40 0 73 33 73 73v122c0 8-7 14-15 14s-14-6-14-14v-122c0-24-20-44-44-44h-188c-24 0-43 20-43 44v139c0 0 0 0 0 0v168l51 45 172 0 52-45v-122c0-8 6-14 14-14z m-168 363h32v-92h-32z m-61-92v92h32v-92z m123-61h-92v31h92z m-1 61v92h31v-92z m-136-454h182c8 0 15 6 15 14v304c0 8-7 14-15 14h-182c-8 0-15-6-15-14v-304c0-8 7-14 15-14z m14 303h153v-31h-153z m0-61h153v-152h-153z m0-182h153v-31h-153z m107 121h-15v15c0 8-7 15-15 15s-15-7-15-15v-15h-15c-8 0-15-7-15-15s7-15 15-15h15v-15c0-8 7-15 15-15s15 7 15 15v15h15c8 0 15 7 15 15s-7 15-15 15z" horiz-adv-x="1000" />

<glyph glyph-name="039-antiseptic" unicode="&#xe826;" d="M589 606v47c0 8-7 15-15 15h-137v92h105c8 0 15 7 15 15s-7 14-15 14h-257v32h473c24 0 44-20 44-44v-48h-32v46c0 8-6 14-14 14h-150c-8 0-15-6-15-14s7-15 15-15h135v-46c0-8 6-15 15-15h60c8 0 15 7 15 15v63c0 40-33 73-73 73h-487c-8 0-15-7-15-15v-60c0-8 7-15 15-15h76v-92h-137c-8 0-15-7-15-15v-47c-34-6-60-36-60-72v-611c0-40 32-73 73-73h368c40 0 73 33 73 73v59c0 8-6 15-14 15s-15-7-15-15v-59c0-24-20-44-44-44h-368c-24 0-44 20-44 44v611c0 24 20 44 44 44h368c24 0 44-20 44-44v-488c0-8 7-14 15-14s14 6 14 14v488c0 36-26 66-60 72z m-213 154h32v-92h-32z m183-121v-32h-334v32z m-349-399c-8 0-14-7-14-15v-299c0-8 6-15 14-15h363c9 0 15 7 15 15v606c0 8-6 15-15 15h-363c-8 0-14-7-14-15v-243c0-8 6-15 14-15s15 7 15 15v143c12-1 19-3 27-5 32-8 66-8 98 0 28 7 56 7 84 0 32-8 65-8 98 0 8 2 15 4 27 5v-492h-334v285c0 8-7 15-15 15z m314 215c-27-7-55-7-83 0-32 9-66 9-98 0-28-7-56-7-84 0-9 3-19 5-34 6v56h334v-56c-16-1-25-3-35-6z m278 146c-8 8-16 8-24 0-10-15-63-93-63-130 0-41 34-75 75-75s75 34 75 75c0 37-52 115-63 130z m-12-176c-25 0-46 21-46 46 0 17 24 61 46 95 22-34 46-78 46-95 0-25-20-46-46-46z m-368-62h-60c-8 0-15-7-15-15v-46h-46c-8 0-15-7-15-15v-60c0-8 7-14 15-14h46v-47c0-8 7-14 15-14h60c8 0 14 6 14 14v47h47c8 0 15 6 15 14v60c0 8-7 15-15 15h-47v46c0 8-6 15-14 15z m46-91v-30h-46c-8 0-15-7-15-15v-46h-30v46c0 8-7 15-15 15h-46v30h46c8 0 15 7 15 15v47h30v-47c0-8 7-15 15-15z m6-178h-165c-8 0-14-7-14-15s6-15 14-15h165c9 0 15 7 15 15s-6 15-15 15z m0-65h-165c-8 0-14-7-14-15s6-14 14-14h165c9 0 15 6 15 14s-6 15-15 15z" horiz-adv-x="1000" />

<glyph glyph-name="040-bandage" unicode="&#xe827;" d="M940 430h-277c-8 0-14-6-14-14s6-15 14-15h11l47-61h-68c-8 0-15-6-15-14s7-15 15-15h41c16 0 30-14 30-31 0-20-12-28-30-30h-41c-8 0-15-7-15-15s7-14 15-14h26c16 0 30-14 30-31 0-18-12-29-30-30h-41c-8 0-15-7-15-15s7-15 15-15h22c17 0 31-13 31-30 0-16-12-29-31-30h-154c-8 0-14-7-14-15s6-15 14-15h154c48 0 78 59 47 98 32 17 42 61 17 91 28 16 38 53 21 82h195c33 0 60 27 60 60 0 33-27 59-60 59z m-105-90l-48 61h63v-61z m44 61h31v-61h-31z m-168 0h38l49-61h-39z m228-61v61c19 0 32-12 32-30 0-18-14-31-32-31z m-496-270h-47c-9 0-17 3-25 8-24 19-48 43-79 50v245c24 27 53 48 81 69l26-35c3-4 7-6 11-6l189 0c9 0 15 7 15 15s-6 14-15 14h-57c20 65 15 131-5 195-9 24-26 37-52 38-31 0-56-26-54-57 3-70-34-110-86-149-17-12-35-26-53-42v34c0 8-7 14-15 14h-71v16c0 8-6 14-15 14h-176c-8 0-15-6-15-14v-424c0-8 7-15 15-15h262c8 0 15 7 15 15v43c23-9 42-28 62-43 12-10 27-15 42-15h47c8 0 14 7 14 15 0 8-6 15-14 15z m-24 361l-23 29c10 9 19 17 28 27l60-56z m37 124h67c1-10 2-21 3-31h-79c4 9 7 20 9 31z m59-113l-56 52h66c0-15-3-38-10-52z m-30 192c13 1 20-6 24-17 3-12 6-22 9-33h-58c0 8 1 15 0 24-1 10 5 26 25 26z m-222-564h-57v85c0 8-6 15-15 15s-14-7-14-15v-85h-148v394h148v-245c0-8 6-15 14-15s15 7 15 15v215h57v-364z m619 178c-10-17-63-100-63-136 0-42 34-75 76-75s75 33 75 75c0 36-53 119-63 136-7 11-18 11-25 0z m13-182c-26 0-46 20-46 46 0 17 24 65 46 100 22-37 45-83 45-100 0-26-20-46-45-46z" horiz-adv-x="1000" />

<glyph glyph-name="041-blood-sample" unicode="&#xe828;" d="M911 1h-52c9 12 14 27 14 44v550c0 40-32 73-73 73h-103v31h15c8 0 15 7 15 15v61c0 8-7 14-15 14h-15v46c0 8-7 15-15 15h-121c-8 0-15-7-15-15v-46h-16c-8 0-14-6-14-14v-61c0-8 6-15 14-15h16v-31h-92v31h16c8 0 14 7 14 15v61c0 8-6 14-14 14h-16v46c0 8-7 15-15 15h-121c-8 0-15-7-15-15v-46h-15c-8 0-15-6-15-14v-61c0-8 7-15 15-15h15v-31h-108c-41 0-74-33-74-73v-92c0-8 7-15 15-15s15 7 15 15v92c0 24 19 44 44 44h605c24 0 44-20 44-44v-550c0-24-20-44-44-44h-605c-25 0-44 20-44 44v394c0 8-7 15-15 15s-15-7-15-15v-394c0-17 6-32 15-44h-47c-16 0-28-13-28-29v-33c0-16 12-28 28-28h32v-46c0-8 7-15 15-15h121c8 0 15 7 15 15v46h202c8 0 14 6 14 14s-6 15-14 15h-384v31h820v-31h-372c-9 0-15-7-15-15s6-14 15-14h190v-46c0-8 7-15 15-15h121c8 0 15 7 15 15v46h32c16 0 28 12 28 28v33c0 16-12 29-28 29z m-336 820h92v-32h-92z m-30-61h153v-31h-153z m-212 61h92v-32h-92z m-31-61h153v-31h-153z m273-61h92v-31h-92z m-242 0h92v-31h-92z m-90-820h-92v32h92v-32z m606 0h-92v32h92z m-46 389c8 0 15 7 15 15v310c0 8-7 14-15 14h-606c-8 0-15-6-15-14v-546c0-8 7-15 15-15h606c8 0 15 7 15 15v172c0 8-7 15-15 15s-14-7-14-15v-157h-578v516h92v-410c0-41 35-75 76-75 41 0 75 34 75 75v410h92v-410c0-41 34-75 75-75 42 0 76 34 76 75v410h92v-295c0-8 6-15 14-15z m-424-146c-28 3-44 18-46 46v289h92v-289c0-25-21-46-46-46z m46 364h-92v92h92z m196-364c-28 3-43 18-46 46v228h92v-228c0-25-20-46-46-46z m46 303h-92v153h92z" horiz-adv-x="1000" />

<glyph glyph-name="042-medicine" unicode="&#xe829;" d="M394 714c0-8 7-15 15-15h182c8 0 15 7 15 15s-7 15-15 15h-182c-8 0-15-7-15-15z m320 136h-428c-41 0-74-33-74-73v-698c0-8 7-15 15-15s15 7 15 15v698c0 24 19 44 44 44h428c25 0 44-20 44-44v-854c0-24-19-44-44-44h-428c-25 0-44 20-44 44v92c0 8-7 15-15 15s-15-7-15-15v-92c0-40 33-73 74-73h428c41 0 74 33 74 73v854c0 40-33 73-74 73z m-246-61h-151c-24 0-44-19-44-44v-790c0-25 20-44 44-44h366c24 0 44 19 44 44v242c0 8-7 15-15 15s-14-7-14-15v-242c0-8-7-15-15-15h-366c-8 0-15 7-15 15v790c0 8 7 15 15 15h151c8 0 15 7 15 15s-7 14-15 14z m244-543c8 0 15 7 15 15v484c0 25-20 44-44 44h-151c-8 0-15-6-15-14s7-15 15-15h151c8 0 15-7 15-15v-484c0-8 6-15 14-15z m-303 422c-41 0-75-34-75-75 0-42 34-75 75-75s75 33 75 75c0 41-33 75-75 75z m0-29c20 0 38-13 44-32h-88c7 19 24 32 44 32z m0-92c-20 0-37 13-44 31h88c-6-18-24-31-44-31z m182 121c-41 0-75-34-75-75 0-42 34-75 75-75 42 0 75 33 75 75 0 41-33 75-75 75z m0-29c20 0 38-13 44-32h-88c7 19 24 32 44 32z m0-92c-20 0-37 13-44 31h88c-6-18-24-31-44-31z m-182-61c-41 0-75-34-75-75 0-42 34-76 75-76s75 34 75 76c0 41-33 75-75 75z m0-29c20 0 38-13 44-32h-88c7 19 24 32 44 32z m0-92c-20 0-37 13-44 31h88c-6-18-24-31-44-31z m182 121c-41 0-75-34-75-75 0-42 34-76 75-76 42 0 75 34 75 76 0 41-33 75-75 75z m0-29c20 0 38-13 44-32h-88c7 19 24 32 44 32z m0-92c-20 0-37 13-44 31h88c-6-18-24-31-44-31z m-182-61c-41 0-75-34-75-75s34-76 75-76 75 34 75 76-33 75-75 75z m0-29c20 0 38-13 44-32h-88c7 19 24 32 44 32z m0-92c-20 0-37 13-44 31h88c-6-18-24-31-44-31z m182 121c-41 0-75-34-75-75s34-76 75-76c42 0 75 34 75 76s-33 75-75 75z m0-29c20 0 38-13 44-32h-88c7 19 24 32 44 32z m0-92c-20 0-37 13-44 31h88c-6-18-24-31-44-31z m-182-61c-41 0-75-34-75-75s34-76 75-76 75 34 75 76-33 75-75 75z m0-29c20 0 38-13 44-32h-88c7 19 24 32 44 32z m0-92c-20 0-37 13-44 31h88c-6-18-24-31-44-31z m182 121c-41 0-75-34-75-75s34-76 75-76c42 0 75 34 75 76s-33 75-75 75z m0-29c20 0 38-13 44-32h-88c7 19 24 32 44 32z m0-92c-20 0-37 13-44 31h88c-6-18-24-31-44-31z" horiz-adv-x="1000" />

<glyph glyph-name="043-health-insurance" unicode="&#xe82a;" d="M879 775c0 7-5 13-13 14l-364 61c-1 0-3 0-4 0l-364-61c-7-1-13-7-13-14v-393c0-8 7-15 15-15s15 7 15 15v380l349 59 349-59v-473c0-52-8-102-26-149-8 8-17 14-27 20 14 41 22 84 22 129v434c0 7-6 13-13 14l-127 22c-8 1-15-4-17-12-1-8 4-16 12-17l115-19v-422c0-40-6-79-18-117-19 7-38 11-58 11-91 0-166-75-166-167 0-20 4-40 11-58-18-6-37-11-57-16-168 38-288 170-288 347v422l288 48 110-19c8-1 16 4 17 12 1 8-4 16-12 17l-113 19c-1 0-3 0-4 0l-303-51c-7-1-12-7-12-14v-434c0-192 131-336 314-376 2-1 4-1 6 0 23 5 45 11 66 19 6-10 12-19 20-27-28-10-57-19-89-25-202 41-349 197-349 409v29c0 8-7 15-15 15s-15-7-15-15v-29c0-227 160-395 376-439 2 0 4 0 6 0 39 8 76 19 110 33 28-21 62-33 99-33 77 0 147 56 163 131 2 8-3 16-11 18-8 1-16-4-18-12-13-62-69-108-134-108-75 0-137 62-137 137 0 76 62 137 137 137 65 0 121-45 134-108 2-8 10-13 18-11 8 2 13 9 11 17-5 24-15 46-30 65 22 55 34 113 34 173z m-277-226c-41 0-79-21-102-53-23 32-61 53-102 53-69 0-125-56-125-125 0-21 5-40 14-58h-30c-8 0-14-6-14-14s6-15 14-15h51c0 0 182-181 182-181 7-6 13-6 20 0 0 0 181 180 181 180h51c9 0 15 7 15 15s-6 14-15 14h-29c9 18 14 38 14 59 0 69-56 125-125 125z m-102-362l-150 150h59c6 0 12 4 14 10l17 52 46-116c5-12 22-13 27-1l47 102 18-39c2-6 7-9 13-9h58z m178 178h-77l-27 61c-5 11-21 12-27 0l-46-101-48 122c-6 15-21 15-28-1l-26-80h-77c-13 17-20 37-20 58 0 52 43 95 96 95 39 0 72-24 88-59 7-15 20-17 28 0 16 35 49 59 88 59 53 0 96-43 96-95 0-22-7-42-20-59z m4-454h61c8 0 14 6 14 14v46h46c8 0 15 7 15 15v61c0 8-7 14-15 14h-46v46c0 8-6 15-14 15h-61c-8 0-15-7-15-15v-46h-46c-8 0-14-6-14-14v-61c0-8 6-15 14-15h46v-46c0-8 7-14 15-14z m-46 90v31h46c8 0 15 7 15 15v46h31v-46c0-8 7-15 15-15h46v-31h-46c-8 0-15-7-15-15v-46h-31v46c0 8-7 15-15 15h-46z" horiz-adv-x="1000" />

<glyph glyph-name="044-medicine" unicode="&#xe82b;" d="M515 2c8 0 15 6 15 14v182c0 8-7 15-15 15h-182c-8 0-14-7-14-15v-182c0-8 6-14 14-14z m-167 182h153v-153h-153z m111-62h-20v21c0 8-7 14-15 14s-14-6-14-14v-21h-21c-8 0-15-7-15-15s7-14 15-14h21v-21c0-8 6-15 14-15s15 7 15 15v21h20c9 0 15 6 15 14s-6 15-15 15z m269 121h-137v33c0 47-37 85-83 89v31h20c8 0 14 7 14 15v70c0 8-6 15-14 15h-40l-9 138c-1 8-8 14-16 13-8 0-14-7-14-15l10-136h-69l21 313c1 6 6 12 13 12 8-1 12-5 13-12l8-114c1-8 8-14 16-13 8 0 14 7 13 15l-8 114c-3 24-17 37-42 39-22 0-41-17-42-39l-22-315h-39c-8 0-15-7-15-15v-70c0-8 7-15 15-15h19v-31c-46-4-82-42-82-89v-46c0-8 6-14 15-14s14 6 14 14v46c0 33 27 60 60 60h154c33 0 60-27 60-60v-397h-274v287c0 9-6 15-14 15s-15-6-15-15v-301c0-8 6-15 15-15h429c8 0 15 7 15 15v119c0 8-7 15-15 15s-14-7-14-15v-105h-97v274h97v-105c0-8 6-14 14-14s15 6 15 14v105h11c8 0 14 7 14 15v61c0 8-6 14-14 14z m-393 223h178v-41h-178z m35-101v31h109v-31z m343-151v-31h-122v31z" horiz-adv-x="1000" />

<glyph glyph-name="045-effervescent" unicode="&#xe82c;" d="M524 273c-41 41-108 41-149 0-41-41-42-108 0-149 0 0 0 0 0 0 0 0 0 0 0 0 20-21 47-31 74-31 27 0 54 10 75 31h0c41 41 41 108 0 149z m-129-21c15 15 35 22 54 22 15 0 30-4 43-12l-106-106c-20 30-17 70 9 96z m108-107c-26-27-67-30-96-10l105 106c20-30 17-70-9-96z m-8 190c-25 0-45 20-45 45s20 45 45 45 45-20 45-45-20-45-45-45z m0 61c-9 0-16-7-16-16 0-9 7-16 16-16 9 0 16 7 16 16 0 9-7 16-16 16z m-167-31c-25 0-45 21-45 46s20 45 45 45 45-20 45-45-20-46-45-46z m0 62c-9 0-16-8-16-16 0-9 7-16 16-16 9 0 16 7 16 16 0 8-7 16-16 16z m60 120c-24 0-45 20-45 45s21 45 45 45 46-20 46-45-21-45-46-45z m0 61c-8 0-15-7-15-16s7-16 15-16c9 0 16 7 16 16s-7 16-16 16z m466-61h-15v46c0 8-7 14-15 14h-72l15 227c0 10-5 15-15 16h-210c-8 0-15-7-15-15s7-14 15-14h134l-8-114c-75-23-143-10-215 4-70 13-143 27-223 4l-7 106h255c8 0 15 6 15 14s-7 15-15 15h-332c-10-1-14-6-15-16l17-245c1-20 30-18 29 2l-16 230h32l56-836c1-7 7-13 15-13 0 0 322 0 322 0v-33h-366l-39 588c-1 19-30 17-29-2l40-601v-59c0-8 6-15 14-15h618c8 0 15 7 15 15v592h15c8 0 15 6 15 14v61c0 8-7 15-15 15z m-45 0h-194v31h194z m-72 274l-15-214h-31l14 214z m-516-911h365v-31h-365z m394-31v31h194v-31z m194 364h-43c-8 0-14-6-14-14s6-15 14-15h43v-31h-43c-8 0-14-7-14-15s6-15 14-15h43v-31h-85v152h85z m-208 63c8 0 14 7 14 15v136h194v-153h-100c-8 0-15-7-15-15v-181c0-8 7-15 15-15h100v-154h-194v318c0 8-6 15-14 15s-15-7-15-15v-255l-309 0-45 683c75 24 144 11 216-3 72-14 146-26 218-6l-5-69h-60c-8 0-15-6-15-14v-46h-16c-8 0-14-7-14-15v-61c0-8 6-14 14-14h16v-136c0-8 7-15 15-15z m239 180h-255v31h255v-31z" horiz-adv-x="1000" />

<glyph glyph-name="046-pharmacy" unicode="&#xe82d;" d="M939 471v61c0 8-6 15-14 15h-46v46c0 8-7 14-15 14h-107v32h46c8 0 15 6 15 14v59c0 9-7 15-15 15s-14-6-14-15v-44l-176 0v153h176v-45c0-8 6-14 14-14s15 6 15 14v59c0 8-7 15-15 15h-606c-8 0-15-7-15-15v-182c0-8 7-14 15-14h46v-32h-107c-8 0-15-6-15-14v-46h-46c-8 0-14-7-14-15v-61c0-36 26-67 60-73v-77c0-8 7-14 15-14s15 6 15 14v77c18 3 35 14 46 29 13-19 36-31 60-31s47 12 61 31c14-19 36-31 61-31s47 12 60 31c14-19 36-31 61-31s47 12 61 31c13-19 36-31 60-31s47 12 61 31c14-19 36-31 61-31s47 12 60 31c11-15 28-26 46-29v-458h-395v410c0 8-7 15-15 15h-242c-8 0-15-7-15-15v-410h-31v317c0 9-7 15-15 15s-15-6-15-15v-317h-46c-8 0-14-7-14-15v-60c0-8 6-15 14-15h850c8 0 14 7 14 15v60c0 8-6 15-14 15h-46v458c34 6 60 37 60 73z m-575-531h-92v335h92z m-153 395h214v-395h-32v349c0 8-6 15-14 15h-122c-8 0-14-7-14-15v-349h-32z m699-456h-820v32h820z m-326 789h-168v153h168z m-373 153h176v-153l-176 0z m61-182h456v-32h-456z m-121-61h698v-31h-698z m-15-153c-25 0-46 21-46 46v46h92v-46c0-25-21-46-46-46z m121 0c-25 0-46 21-46 46v46h92v-46c0-25-20-46-46-46z m122 0c-26 0-46 21-46 46v46h92v-46c0-25-21-46-46-46z m121 0c-25 0-46 21-46 46v46h92v-46c0-25-21-46-46-46z m121 0c-25 0-46 21-46 46v46h92v-46c0-25-20-46-46-46z m122 0c-26 0-46 21-46 46v46h92v-46c0-25-21-46-46-46z m75 46v46h92v-46c0-25-21-46-46-46s-46 21-46 46z m-187-349c-9 0-15-7-15-15s6-14 15-14h172c8 0 15 6 15 14v243c0 8-7 15-15 15h-304c-8 0-15-7-15-15v-243c0-8 7-14 15-14h68c8 0 14 6 14 14s-6 15-14 15h-53v30h275v-30z m158 213v-154h-275v154z m-324 395h20v-21c0-8 7-15 15-15s15 7 15 15v21h20c8 0 15 6 15 14s-7 15-15 15h-20v21c0 8-7 14-15 14s-15-6-15-14v-21h-20c-8 0-15-7-15-15s7-14 15-14z m-202-31h71c8 0 15 7 15 15s-7 15-15 15h-71c-8 0-14-7-14-15s6-15 14-15z m0 61h71c8 0 15 7 15 15s-7 14-15 14h-71c-8 0-14-6-14-14s6-15 14-15z m474-31h-71c-8 0-14-7-14-15s6-15 14-15h71c8 0 15 7 15 15s-7 15-15 15z m0 60h-71c-8 0-14-6-14-14s6-15 14-15h71c8 0 15 7 15 15s-7 14-15 14z" horiz-adv-x="1000" />

<glyph glyph-name="047-medical-prescription" unicode="&#xe82e;" d="M889 722h-71v71c0 31-26 57-57 57 0 0 0 0 0 0h-338c-8 0-14-7-14-15s6-14 14-14h288c-5-9-8-18-8-28l0-411c0-8 7-15 15-15s14 7 14 15v196h114c32 0 58 26 58 58v71c0 8-7 15-15 15z m-157-115v186c0 15 13 28 29 28s28-13 28-28v-157c0-11 2-20 7-29h-64z m142 29c0-16-12-29-28-29s-28 13-28 29v56h56v-56z m-156-303c-8 0-15-7-15-15v-408c0-17-14-31-31-31h0c-17 0-31 14-31 31v76c0 8-6 15-14 15h-332c-9 0-15-7-15-15s6-15 15-15h317v-61c0-11 3-22 8-31h-464c-17 0-30 14-30 31v61h105c8 0 14 7 14 15s-6 15-14 15h-45v792c0 15 13 28 28 28h146c8 0 14 6 14 14s-6 15-14 15h-146c-31 0-57-26-57-57v-792h-46c-8 0-15-7-15-15v-76c0-33 27-60 60-60h516c0 0 0 0 0 0s0 0 0 0c33 0 60 27 60 60v408c0 8-6 15-14 15z m-334 245c8 0 15 7 15 15v46h8l53-71-26-25c-5-6-5-15 0-21 7-6 14-6 21 0l23 23 16-22c6-6 13-7 20-3 7 5 8 14 3 21l-18 24 17 17c5 6 5 15 0 21-6 6-15 6-21 0l-14-14-43 57c13 8 21 22 21 38 0 25-20 45-45 45h-30c-8 0-15-7-15-15v-121c0-8 7-15 15-15z m15 122h15c9 0 16-8 16-16s-7-16-16-16l-15 0z m-106-275h-61c-8 0-14-6-14-14v-61c0-8 6-15 14-15h61c8 0 15 7 15 15v61c0 8-7 14-15 14z m-15-60h-31v31h31z m76 31h303c8 0 15 7 15 15s-7 14-15 14h-303c-9 0-15-6-15-14s6-15 15-15z m0-60h242c8 0 15 6 15 14s-7 15-15 15h-242c-9 0-15-7-15-15s6-14 15-14z m-61-32h-61c-8 0-14-7-14-15v-61c0-8 6-14 14-14h61c8 0 15 6 15 14v61c0 8-7 15-15 15z m-15-61h-31v31h31z m379 61h-303c-9 0-15-7-15-15s6-15 15-15h303c8 0 15 7 15 15s-7 15-15 15z m-303-90h242c8 0 15 6 15 14s-7 15-15 15h-242c-9 0-15-7-15-15s6-14 15-14z m-61-31h-61c-8 0-14-7-14-15v-61c0-8 6-14 14-14h61c8 0 15 6 15 14v61c0 8-7 15-15 15z m-15-61h-31v31h31z m379 61h-303c-9 0-15-7-15-15s6-15 15-15h303c8 0 15 7 15 15s-7 15-15 15z m-61-61h-242c-9 0-15-7-15-15s6-14 15-14h242c8 0 15 6 15 14s-7 15-15 15z" horiz-adv-x="1000" />

<glyph glyph-name="048-medical-appointment" unicode="&#xe82f;" d="M168 456h61c8 0 15 7 15 15v61c0 8-7 15-15 15h-61c-8 0-15-7-15-15v-61c0-8 7-15 15-15z m15 61h32v-32h-32z m106-61h61c8 0 15 7 15 15v61c0 8-7 15-15 15h-61c-8 0-15-7-15-15v-61c0-8 7-15 15-15z m15 61h32v-32h-32z m106-61h61c8 0 15 7 15 15v61c0 8-7 15-15 15h-61c-8 0-15-7-15-15v-61c0-8 7-15 15-15z m15 61h32v-32h-32z m106-61h61c8 0 15 7 15 15v61c0 8-7 15-15 15h-61c-8 0-15-7-15-15v-61c0-8 7-15 15-15z m15 61h32v-32h-32z m-393-167c0-8 7-15 15-15h61c8 0 15 7 15 15v61c0 8-7 15-15 15h-61c-8 0-15-7-15-15z m30 46h32v-32h-32z m212-46c0-8 7-15 15-15h61c8 0 15 7 15 15v61c0 8-7 15-15 15h-61c-8 0-15-7-15-15z m30 46h32v-32h-32z m91-46c0-8 7-15 15-15h61c8 0 15 7 15 15v61c0 8-7 15-15 15h-61c-8 0-15-7-15-15z m30 46h32v-32h-32z m-393-167c0-8 7-15 15-15h61c8 0 15 7 15 15v61c0 8-7 15-15 15h-61c-8 0-15-7-15-15z m30 46h32v-32h-32z m91-46c0-8 7-15 15-15h61c8 0 15 7 15 15v61c0 8-7 15-15 15h-61c-8 0-15-7-15-15z m30 46h32v-32h-32z m91-46c0-8 7-15 15-15h61c8 0 15 7 15 15v61c0 8-7 15-15 15h-61c-8 0-15-7-15-15z m30 46h32v-32h-32z m-272-168c0-8 7-15 15-15h61c8 0 15 7 15 15v61c0 8-7 15-15 15h-61c-8 0-15-7-15-15z m30 47h32v-32h-32z m91-47c0-8 7-15 15-15h61c8 0 15 7 15 15v61c0 8-7 15-15 15h-61c-8 0-15-7-15-15z m30 47h32v-32h-32z m91-47c0-8 7-15 15-15h61c8 0 15 7 15 15v61c0 8-7 15-15 15h-61c-8 0-15-7-15-15z m30 47h32v-32h-32z m91 75c0-8 7-15 15-15h61c8 0 15 7 15 15v61c0 8-7 15-15 15h-61c-8 0-15-7-15-15z m30 46h32v-32h-32z m167 272h-61c-8 0-14-7-14-15v-61c0-8 6-15 14-15h61c9 0 15 7 15 15v61c0 8-6 15-15 15z m-14-62h-32v32h32z m-61-254c0-8 6-14 14-14h61c9 0 15 6 15 14v62c0 8-6 14-15 14h-61c-8 0-14-6-14-14z m29 47h32v-32h-32z m-393 72c0-8 7-15 15-15h61c8 0 15 7 15 15v61c0 8-7 15-15 15h-61c-8 0-15-7-15-15z m30 46h32v-32h-32z m374-19l-14 18c-6 6-15 7-21 1s-7-14-2-20l25-30c6-6 15-7 21-1l53 51c6 5 6 14 0 20s-15 6-21 1z m248-378c-8 2-16-4-17-12-14-62-70-108-134-108-76 0-137 62-137 137 0 76 61 137 137 137 64 0 120-45 134-108 1-8 9-13 17-11 8 2 13 10 11 17-12 59-59 109-117 125v540c0 41-33 73-74 73h-78l0 16c1 25-22 45-45 45-25 0-45-20-45-45v-16h-105c-8 0-15-6-15-14s7-15 15-15h165l0-16c0-8-7-15-15-15h-30c-8 0-15-7-15-15s7-15 15-15h30c24 0 44 20 45 45l0 16h78c25 0 44-20 44-44v-48h-698v48c0 24 19 44 44 44h139l-1-16c0-8-6-15-15-15h-30c-8 0-14-7-14-15s6-15 14-15h30c25 0 45 20 45 45l0 16h105c8 0 15 7 15 15s-7 14-15 14h-105l0 16c0 29-22 45-45 45-24 0-44-20-44-45v-16h-79c-41 0-74-32-74-73v-334c0-8 7-15 15-15s15 7 15 15v196h698v-396c-78 7-154-44-175-121h-523v257c0 8-7 15-15 15s-15-7-15-15v-332c0-8 7-15 15-15h538c19-70 84-121 160-121 76 0 146 56 162 131 2 8-3 16-11 18z m-318 790v16c0 9 7 16 15 16 8 0 15-8 15-16l0-16z m-364 16c0 9 7 16 15 16 8 0 16-8 16-16l0-16h-31z m-152-198v32h698v-32z m0-606v31h517c-1-10-1-21 0-31z m652-90h61c8 0 15 6 15 14v46h46c8 0 14 7 14 15v61c0 8-6 14-14 14h-46v46c0 9-7 15-15 15h-61c-8 0-14-6-14-15v-46h-46c-8 0-15-6-15-14v-61c0-8 7-15 15-15h46v-46c0-8 6-14 14-14z m-46 90v31h46c8 0 15 7 15 15v46h31v-46c0-8 7-15 15-15h46v-31h-46c-8 0-15-7-15-15v-46h-31v46c0 8-7 15-15 15z" horiz-adv-x="1000" />

<glyph glyph-name="049-medicine" unicode="&#xe830;" d="M985 728h-139c-8 0-15-6-15-14s7-15 15-15h125c-1-17-15-31-32-31h-227c-8 0-15-7-15-15 0-25-20-46-45-46-26 0-46 21-46 46 0 26 20 46 46 46h130c8 0 15 7 15 15s-7 14-15 14h-130c-42 0-76-33-76-75-1-22-12-36-31-43v104c18 14 30 36 30 61 0 41-33 75-75 75s-75-34-75-75c0-25 12-47 30-61v-104c-19 7-30 21-31 43 0 42-34 75-75 75h-105c-8 0-15-6-15-14s7-15 15-15h105c25 0 45-20 45-46 0-25-20-46-45-46-26 0-46 21-46 46 0 8-7 15-15 15h-226c-18 0-32 14-33 31h151c8 0 15 7 15 15s-7 14-15 14h-165c-8 0-15-6-15-14v-14c0-33 27-61 61-61 0-33 27-60 60-61 1-32 26-58 58-60 0-34 28-62 61-62h59c-1-11 1-22 6-32-16-59 27-106 75-132-44-26-66-59-66-99 0-39 22-72 66-99-40-21-78-56-78-105 0-71 72-104 96-115 8-4 20 2 20 13v72c0 5-2 10-6 13-14 9-15 15-15 17 0 16 58 39 58 38v-162c0-8 7-15 15-15h60c8 0 15 7 15 15v28c0 8-7 15-15 15s-14-7-14-15v-14h-32v160c6 2 11 3 16 5 5-2 11-3 16-5v-82c0-8 6-14 14-14s15 6 15 14v70c8-3 58-22 58-38 0-2-1-8-15-17-4-3-6-8-6-13v-72c0-11 12-17 20-13 24 11 96 44 96 115 0 48-38 84-78 105 44 27 66 60 66 99 0 40-22 73-66 99 48 26 91 73 75 132 5 10 7 21 6 32h59c34 0 61 28 61 62 32 2 57 28 58 60 33 1 60 28 60 61 34 0 61 28 61 61v14c0 8-7 14-15 14z m-382-331c-2-17-48-33-58-38v158c17 1 36-6 45-21-10-12-17-27-17-44 0-22 12-43 30-55z m-103 424c25 0 46-21 46-46s-21-46-46-46-46 20-46 46 21 46 46 46z m16-120v-353c-5-2-11-4-16-5-5 1-10 3-16 5v353c9-3 25-2 32 0z m-89-249c0 17-6 32-17 44 9 15 28 22 45 21v-158c-3 2-55 21-58 38 18 12 30 33 30 55z m-187 34c-17 0-32 14-32 31h74c8 0 15 7 15 15s-7 15-15 15l-99 0c-18 0-32 14-32 31h93c8 0 14 7 14 15s-6 14-14 14l-122 0c-17 0-31 14-32 32h185c7-35 37-61 74-61 24 0 46 12 60 31 11-15 26-25 46-30v-33c-26 0-54-11-70-34-27 10-62-2-77-26h-68z m103-293c0 42 37 68 70 84 14-6 29-12 44-17-41-17-78-37-78-67 0-29 37-49 78-66-14-5-29-11-44-17-33 16-70 42-70 83z m248 0c0-4-4-15-46-33v67c42-18 46-29 46-34z m-75-45c-5-2-10-4-16-6-5 2-10 4-16 6v91c6 2 11 4 16 6 6-2 11-4 16-6v-91z m-61 12c-41 18-46 29-46 33s5 16 46 34z m214-171c0-31-18-56-58-78v41c15 11 22 23 22 37 0 30-37 50-90 71 14 5 29 11 45 18 36-17 81-43 81-89z m-12 204c0-43-41-69-75-86-39-16-78-30-117-44-59-22-98-43-98-74 0-14 7-26 22-37v-41c-39 22-58 47-58 78 0 28 18 54 54 74 46 28 100 41 151 61 44 18 85 38 85 69 0 32-41 52-85 70 0 0 0 0 0 0 0 0 0 0 0 0-9 3-142 55-151 60-34 20-65 55-50 97 1 5 1 9-2 13-3 6-5 12-5 19 0 19 15 35 35 35 19 0 35-16 35-35 0-13-8-26-20-32-8-3-11-14-11-22 0-31 39-52 98-74 10-4 92-33 116-44 34-16 76-44 76-87z m8 227c3-7 4-14 4-22 0-46-45-72-81-89-15 7-30 13-45 18 53 21 90 41 90 71 0 8-3 19-11 22-12 6-20 19-20 32 0 19 16 35 35 35 20 0 35-16 35-35 0-7-2-13-5-19-3-4-3-8-2-13z m213 187l-122 0c-8 0-14-6-14-14s6-15 14-15h93c0-17-14-31-32-31l-99 0c-8 0-15-7-15-15s7-15 15-15h74c0-17-15-31-32-31h-68c-15 24-50 36-77 26-16 23-43 34-70 34v33c20 5 35 15 46 30 14-19 36-31 61-31 36 0 66 26 73 61h185c0-18-15-32-32-32z" horiz-adv-x="1000" />

<glyph glyph-name="050-drug" unicode="&#xe831;" d="M379 699c-8 0-15 7-15 15v61c0 8 7 14 15 14s14-6 14-14v-61c0-8-6-15-14-15z m-61 0c-8 0-15 7-15 15v61c0 8 7 14 15 14s15-6 15-14v-61c0-8-7-15-15-15z m121 0c-8 0-14 7-14 15v61c0 8 6 14 14 14s15-6 15-14v-61c0-8-7-15-15-15z m61 0c-8 0-15 7-15 15v61c0 8 7 14 15 14s15-6 15-14v-61c0-8-7-15-15-15z m61 0c-8 0-15 7-15 15v61c0 8 7 14 15 14s14-6 14-14v-61c0-8-6-15-14-15z m60 0c-8 0-14 7-14 15v61c0 8 6 14 14 14s15-6 15-14v-61c0-8-7-15-15-15z m61 0c-8 0-15 7-15 15v61c0 8 7 14 15 14s15-6 15-14v-61c0-8-7-15-15-15z m121-569c8 0 15 7 15 15v327c0 23-11 45-29 59l-92 69v39h16c25 0 44 19 44 44v123c0 24-19 44-44 44h-120c-8 0-15-7-15-15s7-14 15-14h120c8 0 15-7 15-15v-123c0-8-7-15-15-15h-426c-8 0-15 7-15 15v123c0 8 7 15 15 15h242c8 0 14 6 14 14s-6 15-14 15h-242c-25 0-44-20-44-44v-123c0-25 19-44 44-44h16v-39l-92-69c-18-14-29-36-29-59v-549c0-40 33-73 73-73h490c40 0 73 33 73 73v158c0 8-7 15-15 15s-14-7-14-15v-158c0-24-20-44-44-44h-490c-24 0-44 20-44 44v549c0 14 7 27 18 36l94 70 354 0 94-70c11-9 18-22 18-36v-327c0-8 6-15 14-15z m-470 477v32h334v-32z m-76-696h486c8 0 14 6 14 14v546c0 5-2 9-6 12l-80 61c-3 2-6 3-9 3 0 0 0 0 0 0l-324 0c-3 0-6-1-9-3l-80-61c-4-3-6-7-6-12v-146c0-8 6-14 14-14s15 6 15 14v132l456 0v-456h-456v261c0 8-6 14-15 14s-14-6-14-14v-337c0-8 6-14 14-14z m86 606l314 0 42-31-398 0z m385-546v-31h-456v31z m-353 212c9-5 15-13 16-23l12-94c1-19 17-35 37-35 17 0 33 13 36 31 0 0 0 0 0 1l13 106c3 15 19 17 22 0l11-103c2-20 19-35 38-35 20 0 36 15 38 35l11 94c2 10 8 18 16 23 20 9 33 30 33 52v98c0 50-41 92-91 92-19 0-43-10-60-21-4-2-9-2-13 1-17 13-39 21-61 20-50 0-91-42-91-92v-98c0-22 13-43 33-52z m-3 150c0 34 27 62 61 62 16 0 32-6 45-15 13-8 30-9 43-2 13 9 31 17 46 17 34 0 61-28 61-62v-98c0-11-6-21-16-26-17-9-29-26-32-46l-11-93c-2-14-16-14-18-1l-11 104c-2 20-20 36-40 36-20 0-37-16-40-36l-13-106c-2-11-13-11-15 2l-12 95c-3 19-15 36-32 45l0 0c-10 5-16 15-16 26v98z" horiz-adv-x="1000" />
</font>
</defs>
</svg>
